Anime i manga en català

Moderadors: Guiru, wachimiro

 
Avatar de l’usuari
Bilkoff
Moderadors
Moderadors
Entrades: 797
Membre des de: dt. 05 oct. 2004, 19:22
Ubicació: Borriana

RG Veda

dv. 31 jul. 2009, 03:08

RG Veda

Imatge


Sinopsi

Al principi dels temps els Deus regnaven al cel i els homes no s'hi podien enfrontar. Al mon hi havia pau sota el regnat del poderós Tenkai, senyor de tot l'univers. Un dia, sota un cel porpra i amenaçador, un general malvat es va revoltar, va lluitar contra l'honorable Tenkai i, amb astutes traïduries, el va vèncer. El cap de Tenkai suspès de la mà de l'ambiciós Taishakuten simbolitzava el començament d'una nova era.
Sis puntes d'una estrella resplendent. Sis guerrers arribats del cel per combatre les forces del mal. Un d'ells encara ha de venir, però ja hi ha cinc disposats a complir el seu destí. Superareu la pèrdua de les vostres famílies per lluitar per els que son massa dèbils per resistir-ho, i fareu que el món torne a viure una època daurada. Només sou criatures, però ocupareu el lloc que us pertoca a la estrella i fareu que la justícia torni a regnar entre el homes. Vindreu desde la frontera de la foscor i sereu tan forts que podreu moure les estrelles, i el que es més difícil, el cor dels homes. Sereu una flama encesa que cremarà la maldat que ara ocupa el poder. La estrella de sis puntes triomfarà en el món dels homes. El món tornarà a ser un paradís, i el cel serà només pels Deus.
Aquests OVAs presenten fets que no apareixen al manga, i també apareixen fets que apareixen al manga però que es resolen de manera diferent.


Dades tècniques

Nom original: Sei-Den (聖伝)
Nom en català: RG Veda
Autor: CLAMP
Gènere: shonen
Any: 1991
Idiomes: català i castellà 44100Hz 192kb/s ABR mono
Episodis: 2 OVA
Codificació: xvid ~1900kbps
Resolució: 720x480 - AR 4:3
Pes: 700Mb

Report MediaInfo OVA 1 (avi)
General
Complete name : M:\RG Veda OVA 01 [cat-esp].avi
Format : AVI
Format/Info : Audio Video Interleave
Format profile : OpenDML
File size : 701 MiB
Duration : 44mn 34s
Overall bit rate : 2 197 Kbps
Writing application : AVI-Mux GUI 1.17.7, Aug 8 2006 20:59:17

Video
Format : MPEG-4 Visual
Format profile : Streaming Video@L1
Format settings, BVOP : Yes
Format settings, QPel : No
Format settings, GMC : No warppoints
Format settings, Matrix : Default
Codec ID : XVID
Codec ID/Hint : XviD
Duration : 44mn 34s
Bit rate : 1 838 Kbps
Width : 720 pixels
Height : 480 pixels
Display aspect ratio : 4/3
Frame rate : 29.970 fps
Standard : NTSC
Resolution : 24 bits
Colorimetry : 4:2:0
Scan type : Progressive
Bits/(Pixel*Frame) : 0.177
Stream size : 586 MiB (84%)
Writing library : XviD 50

Audio #1
Format : MPEG Audio
Format version : Version 1
Format profile : Layer 3
Codec ID : 55
Codec ID/Hint : MP3
Bit rate mode : Variable
Bit rate : 174 Kbps
Minimum bit rate : 196 Kbps
Channel(s) : 1 channel
Sampling rate : 44.1 KHz
Resolution : 16 bits
Stream size : 55.6 MiB (8%)
Alignment : Aligned on interleaves
Interleave, duration : 26 ms (0.78 video frame)
Interleave, preload duration : 225 ms
Title : Català
Writing library : LAME3.98r
Encoding settings : ABR

Audio #2
Format : MPEG Audio
Format version : Version 1
Format profile : Layer 3
Codec ID : 55
Codec ID/Hint : MP3
Bit rate mode : Variable
Bit rate : 171 Kbps
Minimum bit rate : 192 Kbps
Channel(s) : 1 channel
Sampling rate : 44.1 KHz
Resolution : 16 bits
Stream size : 54.6 MiB (8%)
Alignment : Aligned on interleaves
Interleave, duration : 26 ms (0.78 video frame)
Interleave, preload duration : 48 ms
Title : Castellano
Writing library : LAME3.98r
Encoding settings : ABR

Report MediaInfo OVA 2 (avi)
General
Complete name : F:\RG Veda OVA 02 [cat-esp].avi
Format : AVI
Format/Info : Audio Video Interleave
Format profile : OpenDML
File size : 703 MiB
Duration : 40mn 15s
Overall bit rate : 2 439 Kbps
Writing application : AVI-Mux GUI 1.17.7, Aug 8 2006 20:59:17

Video
ID : 0
Format : MPEG-4 Visual
Format profile : AdvancedSimple@L5
Format settings, BVOP : Yes
Format settings, QPel : No
Format settings, GMC : No warppoints
Format settings, Matrix : Default (H.263)
Codec ID : XVID
Codec ID/Hint : XviD
Duration : 40mn 15s
Bit rate : 2 084 Kbps
Width : 720 pixels
Height : 480 pixels
Display aspect ratio : 4/3
Frame rate : 29.970 fps
Standard : NTSC
Resolution : 24 bits
Colorimetry : 4:2:0
Scan type : Progressive
Bits/(Pixel*Frame) : 0.201
Stream size : 600 MiB (85%)
Writing library : XviD 1.2.1 (UTC 2008-12-04)

Audio #1
ID : 1
Format : MPEG Audio
Format version : Version 1
Format profile : Layer 3
Codec ID : 55
Codec ID/Hint : MP3
Duration : 40mn 15s
Bit rate mode : Variable
Bit rate : 168 Kbps
Nominal bit rate : 192 Kbps
Channel(s) : 1 channel
Sampling rate : 44.1 KHz
Resolution : 16 bits
Stream size : 48.5 MiB (7%)
Alignment : Aligned on interleaves
Interleave, duration : 26 ms (0.78 video frame)
Interleave, preload duration : 198 ms
Title : Català
Writing library : LAME3.98r
Encoding settings : -m m -V 4 -q 2 -lowpass 20.5 --abr 192

Audio #2
ID : 2
Format : MPEG Audio
Format version : Version 1
Format profile : Layer 3
Codec ID : 55
Codec ID/Hint : MP3
Duration : 40mn 15s
Bit rate mode : Variable
Bit rate : 173 Kbps
Nominal bit rate : 192 Kbps
Channel(s) : 1 channel
Sampling rate : 44.1 KHz
Resolution : 16 bits
Stream size : 49.8 MiB (7%)
Alignment : Aligned on interleaves
Interleave, duration : 26 ms (0.78 video frame)
Interleave, preload duration : 188 ms
Title : Castellano
Writing library : LAME3.98r
Encoding settings : -m m -V 4 -q 2 -lowpass 20.5 --abr 192

Report MediaInfo OVA 1 (mkv)
General
Complete name : F:\RG Veda OVA 1 [cat-esp].mkv
Format : Matroska
File size : 349 MiB
Duration : 44mn 34s
Overall bit rate : 1 095 Kbps
Movie name : RG Veda OVA 1 - release by Bilkoff
Encoded date : UTC 2009-09-03 03:06:23
Writing application : mkvmerge v2.9.7 ('Tenderness') built on Jul 1 2009 18:43:35
Writing library : libebml v0.7.7 + libmatroska v0.8.1

Video
ID : 1
Format : AVC
Format/Info : Advanced Video Codec
Format profile : High@L4.1
Format settings, CABAC : Yes
Format settings, ReFrames : 4 frames
Muxing mode : Container profile=Unknown@4.1
Codec ID : V_MPEG4/ISO/AVC
Duration : 44mn 31s
Bit rate : 753 Kbps
Nominal bit rate : 772 Kbps
Width : 720 pixels
Height : 480 pixels
Display aspect ratio : 4/3
Frame rate : 29.970 fps
Standard : NTSC
Resolution : 24 bits
Colorimetry : 4:2:0
Scan type : Progressive
Bits/(Pixel*Frame) : 0.073
Stream size : 240 MiB (69%)
Title : RG Veda OVA 1
Writing library : x264 core 68 r1183M f21daff
Encoding settings : cabac=1 / ref=4 / deblock=1:1:1 / analyse=0x3:0x113 / me=umh / subme=8 / psy_rd=0.6:0.0 / mixed_ref=1 / me_range=16 / chroma_me=1 / trellis=1 / 8x8dct=1 / cqm=0 / deadzone=21,11 / chroma_qp_offset=-2 / threads=6 / nr=0 / decimate=1 / mbaff=0 / bframes=3 / b_pyramid=0 / b_adapt=2 / b_bias=0 / direct=3 / wpredb=0 / keyint=250 / keyint_min=25 / scenecut=40 / rc=2pass / bitrate=772 / ratetol=1.0 / qcomp=0.60 / qpmin=10 / qpmax=51 / qpstep=4 / cplxblur=20.0 / qblur=0.5 / vbv_maxrate=50000 / vbv_bufsize=50000 / ip_ratio=1.40 / pb_ratio=1.30 / aq=0
Language : Japanese

Audio #1
ID : 2
Format : AC-3
Format/Info : Audio Coding 3
Codec ID : A_AC3
Duration : 44mn 34s
Bit rate mode : Constant
Bit rate : 160 Kbps
Channel(s) : 1 channel
Channel positions : C
Sampling rate : 44.1 KHz
Stream size : 51.0 MiB (15%)
Language : Spanish

Audio #2
ID : 3
Format : AC-3
Format/Info : Audio Coding 3
Codec ID : A_AC3
Duration : 44mn 34s
Bit rate mode : Constant
Bit rate : 160 Kbps
Channel(s) : 1 channel
Channel positions : C
Sampling rate : 44.1 KHz
Stream size : 51.0 MiB (15%)
Language : Catalan

Report MediaInfo OVA 2 (mkv)
General
Complete name : F:\RG Veda OVA 2 [cat-esp].mkv
Format : Matroska
File size : 349 MiB
Duration : 40mn 15s
Overall bit rate : 1 213 Kbps
Movie name : - release by Bilkoff
Encoded date : UTC 2009-09-03 03:33:35
Writing application : mkvmerge v2.9.7 ('Tenderness') built on Jul 1 2009 18:43:35
Writing library : libebml v0.7.7 + libmatroska v0.8.1

Video
ID : 1
Format : AVC
Format/Info : Advanced Video Codec
Format profile : High@L4.1
Format settings, CABAC : Yes
Format settings, ReFrames : 4 frames
Muxing mode : Container profile=Unknown@4.1
Codec ID : V_MPEG4/ISO/AVC
Duration : 40mn 13s
Bit rate : 869 Kbps
Nominal bit rate : 890 Kbps
Width : 720 pixels
Height : 480 pixels
Display aspect ratio : 4/3
Frame rate : 29.970 fps
Standard : NTSC
Resolution : 24 bits
Colorimetry : 4:2:0
Scan type : Progressive
Bits/(Pixel*Frame) : 0.084
Stream size : 250 MiB (72%)
Title : RG Veda OVA 2
Writing library : x264 core 68 r1183M f21daff
Encoding settings : cabac=1 / ref=4 / deblock=1:1:1 / analyse=0x3:0x113 / me=umh / subme=8 / psy_rd=0.6:0.0 / mixed_ref=1 / me_range=16 / chroma_me=1 / trellis=1 / 8x8dct=1 / cqm=0 / deadzone=21,11 / chroma_qp_offset=-2 / threads=6 / nr=0 / decimate=1 / mbaff=0 / bframes=3 / b_pyramid=0 / b_adapt=2 / b_bias=0 / direct=3 / wpredb=0 / keyint=250 / keyint_min=25 / scenecut=40 / rc=2pass / bitrate=890 / ratetol=1.0 / qcomp=0.60 / qpmin=10 / qpmax=51 / qpstep=4 / cplxblur=20.0 / qblur=0.5 / vbv_maxrate=50000 / vbv_bufsize=50000 / ip_ratio=1.40 / pb_ratio=1.30 / aq=0
Language : Japanese

Audio #1
ID : 2
Format : AC-3
Format/Info : Audio Coding 3
Codec ID : A_AC3
Duration : 40mn 15s
Bit rate mode : Constant
Bit rate : 160 Kbps
Channel(s) : 1 channel
Channel positions : C
Sampling rate : 44.1 KHz
Stream size : 46.1 MiB (13%)
Language : Spanish

Audio #2
ID : 3
Format : AC-3
Format/Info : Audio Coding 3
Codec ID : A_AC3
Duration : 40mn 15s
Bit rate mode : Constant
Bit rate : 160 Kbps
Channel(s) : 1 channel
Channel positions : C
Sampling rate : 44.1 KHz
Stream size : 46.1 MiB (13%)
Language : Catalan


Descàrrega


Versió avi (~700mb per OVA)
Enllaç MEGA de la 1a OVA avi
Enllaç MEGA de la 2a OVA avi


ed2k: RG Veda OVA 01 [cat-esp].avi  [700.52 Mb]
ed2k: RG Veda OVA 02 [cat-esp].avi  [702.53 Mb]

Versió mkv (~350mb per OVA)
Enllaç MEGA de la 1a OVA mkv
Enllaç MEGA de la 2a OVA mkv

ed2k: RG Veda OVA 1 [cat-esp].mkv  [348.99 Mb]
ed2k: RG Veda OVA 2 [cat-esp].mkv  [349.28 Mb]

[ Afegeix els 4 enllaços al teu client d'ed2k ]
Bilkoff l’ha editat per darrera vegada el dia: dl. 15 jul. 2013, 15:06, en total s’ha editat 13 vegades.
 
Avatar de l’usuari
wachimiro
Moderadors
Moderadors
Entrades: 1795
Membre des de: dg. 19 feb. 2006, 16:53
Ubicació: China

dv. 31 jul. 2009, 17:29

Gracies per la pujada a l'espera de la segona OVA :yeah: , dona una mica mes de feina descarregar eixis, pero es pot descarregar de diferents hosts a la vegada que tambe s'agraeix.
Si teniu cap problema per descarregar amb JDownloader feu servir aquesta versió i actualitzeu aquí la trobareu. -->>JDownloader <<--
 
Avatar de l’usuari
wachimiro
Moderadors
Moderadors
Entrades: 1795
Membre des de: dg. 19 feb. 2006, 16:53
Ubicació: China

ds. 01 ago. 2009, 23:02

Em surt error en crc a l'arxiu 4 i 7. Ho e tornat a descarregar i passa el mateix. Hem sembla que no s'han pujat correctament aquestes parts.
Si teniu cap problema per descarregar amb JDownloader feu servir aquesta versió i actualitzeu aquí la trobareu. -->>JDownloader <<--
 
Avatar de l’usuari
Bilkoff
Moderadors
Moderadors
Entrades: 797
Membre des de: dt. 05 oct. 2004, 19:22
Ubicació: Borriana

dg. 02 ago. 2009, 07:45

Link de la part 4 arreglada, el 7 es exactament igual el que tinc que un que m'he baixat.
Al contenidor dlc li he tret els links dels hosts que no accepta el jDownloader per a no baixar pàgines web :jiji:
Afegit link per al emule. ¿He de crear un fil nou igual al subforum de emule per a publicar-lo?
La segona OVA espero tindre-la en menys d'una setmana :blau:
 
Avatar de l’usuari
Kyuuchan
Arashinchu
Arashinchu
Entrades: 156
Membre des de: dc. 19 des. 2007, 20:08

dg. 09 ago. 2009, 21:27

Gracies per la pujada y nomes voldria preguntar. He anat a baixar-ho y no vec que posi Megaupload com has dit, segur que fa mirrors per Megaupload?
Imatge
 
Avatar de l’usuari
Bilkoff
Moderadors
Moderadors
Entrades: 797
Membre des de: dt. 05 oct. 2004, 19:22
Ubicació: Borriana

dl. 10 ago. 2009, 03:14

En realitat no es solen fer tots els mirrors que diu la pàgina, aquell dia megaupload va ser uns dels que varen fallar. No crec que tinguis problemes per descarregar amb la quantitat de mirrors que hi han disponibles. Suposo que d'aquí un mes o tres, quan comencin a fallar els links per inactivitat el tornaré a repujar.
PD: No tornaré a dir mai quan tindré una release llesta ^^u
 
Avatar de l’usuari
wachimiro
Moderadors
Moderadors
Entrades: 1795
Membre des de: dg. 19 feb. 2006, 16:53
Ubicació: China

dl. 10 ago. 2009, 19:44

Bilkoff si no et molesta le pujat a megaupload.

http://www.megaupload.com/?d=CEUKF26J

Esperant la segona OVA. ^^u
Si teniu cap problema per descarregar amb JDownloader feu servir aquesta versió i actualitzeu aquí la trobareu. -->>JDownloader <<--
 
Pyzzy
Chishinchu
Chishinchu
Entrades: 3376
Membre des de: dc. 03 des. 2003, 22:34
Ubicació: Can'-Ka No Rey

dc. 12 ago. 2009, 22:32

Gràcies per les oves ^^.

A l'espera de la segona :D.

:adeu:
 
Avatar de l’usuari
Bilkoff
Moderadors
Moderadors
Entrades: 797
Membre des de: dt. 05 oct. 2004, 19:22
Ubicació: Borriana

Re: RG Veda

dv. 21 ago. 2009, 12:26

Afegida la segona ova! :yeah:
Estic pensant que ocupa molt, vaig a fer-me una versió que ocupi menys en mkv-x264, la penjo també? No se si fer-la compatible amb DXVA (acceleració per hardware), si no ho es ocuparà menys encara.
 
Yumede
Ishinchu
Ishinchu
Entrades: 42
Membre des de: dl. 05 nov. 2007, 21:32

Re: RG Veda

dv. 21 ago. 2009, 13:40

Gracies per les dues ovas, pero hi ha un problema.
De la segona ova la part 5 dona error despres de descarregá.
vinga que vagi be :D
:o :o :o
 
Avatar de l’usuari
Bilkoff
Moderadors
Moderadors
Entrades: 797
Membre des de: dt. 05 oct. 2004, 19:22
Ubicació: Borriana

Re: RG Veda

ds. 22 ago. 2009, 09:14

Yumede ha escrit:
De la segona ova la part 5 dona error despres de descarregá.

Ja està arreglat, si hi ha algún altre problema aviseu :yeah:
:adeu:
 
Yumede
Ishinchu
Ishinchu
Entrades: 42
Membre des de: dl. 05 nov. 2007, 21:32

Re: RG Veda

ds. 22 ago. 2009, 14:07

Moltes gracies :D
:o :o :o
 
Avatar de l’usuari
Bilkoff
Moderadors
Moderadors
Entrades: 797
Membre des de: dt. 05 oct. 2004, 19:22
Ubicació: Borriana

Re: RG Veda

dl. 07 set. 2009, 06:13

He pujat una versió menys pesada en mkv. La resolució es la mateixa, el que canvia son els codecs amb els que està comprimit: el àudio es ac3, i el vídeo x264 amb perfil 4.1 compatible amb acceleració per hardware DXVA.
Tinc un problema al post, es que el tag [url] ha d'estar seguit per http i no puc ficar dlc:// que es el que seria el click'n'load del jDownloader, si algú que puga escriure html em pot editar el missatge i ficar <a href= en lloc del [url= funcionaria.
 
Avatar de l’usuari
wachimiro
Moderadors
Moderadors
Entrades: 1795
Membre des de: dg. 19 feb. 2006, 16:53
Ubicació: China

Re: RG Veda

dv. 11 set. 2009, 01:29

Bilkoff e pujat les Oves tant les de mkv com les avi a un sol link a megauplaod, espero que no t'importi, a l'hora de posar-lo a la recopilacio e vist que no te fitxa a la web, demanali a algun moderador, o si algu amb privilegis llegeix aixo si pot que crei una llista a la web, amb els elinks que a posat en bilkoff per si algu busca les Oves.
Si teniu cap problema per descarregar amb JDownloader feu servir aquesta versió i actualitzeu aquí la trobareu. -->>JDownloader <<--

Qui està connectat

Usuaris navegant en aquest fòrum: No hi ha cap usuari registrat i 1 visitant