Anime i manga en català

Moderadors: Steve Maister, wachimiro, Bilkoff

 
Avatar de l’usuari
roger_anime_cat
Arashinchu
Arashinchu
Entrades: 90
Membre des de: dv. 03 maig 2013, 17:29

[MEGA] Vull menjar-me el teu pàncrees [BDRip 1080p] [Català, castellà i japonès + subtítols]

dt. 13 ago. 2019, 23:37

Imatge

Títol: Vull menjar-me el teu pàncrees
Any: 2018
Durada: 108 min.
Format: MKV (H.264 8-bit | 10-bit)
Mida: 8-bit: 5,98 GB | 10-bit: 6,03 GB
Àudios: Català, castellà i japonès (tots tres en AC3 5.1)
Subtítols forçats i sencers: Català i castellà
Resolució: 1920 x 1080
FPS: 23,976
Notes: Vídeo, àudios i subtítols extrets del blu-ray de SV. Els àudios estan amb aquest format per temes de compatibilitat. Els subtítols forçats són .srt els sencers .sup. En els forçats he corregit alguna falta d'ortografia i tot. La versió de 8-bit (v2) hauria de ser compatible amb les Smart TV.

Baixeu l'opció més adient (JDownloader o similar necessari):
Versió 8-bit (v2) (recomanada per compatibilitat):
Versió 10-bit:

Gràcies a l'Adri per l'ajuda!

MediaInfo (8-bit):
Spoiler: mostra
General
Unique ID : 45471510097267495123073861559903344048 (0x22357E89DFA0E8DE88A0F369C00455B0)
Complete name : Vull menjar-me el teu pàncrees [1080p 8-bit] [Multi àudio AC3 5.1 + subtítols] (v2).mkv
Format : Matroska
Format version : Version 4 / Version 2
File size : 5.98 GiB
Duration : 1 h 48 min
Overall bit rate : 7 882 kb/s
Encoded date : UTC 2019-08-15 22:12:22
Writing application : mkvmerge v36.0.0 ('Is That Jazz?') 64-bit
Writing library : libebml v1.3.9 + libmatroska v1.5.2

Video
ID : 1
Format : AVC
Format/Info : Advanced Video Codec
Format profile : High@L4.1
Format settings, CABAC : Yes
Format settings, RefFrames : 4 frames
Codec ID : V_MPEG4/ISO/AVC
Duration : 1 h 48 min
Bit rate : 5 920 kb/s
Width : 1 920 pixels
Height : 1 080 pixels
Display aspect ratio : 16:9
Frame rate mode : Constant
Frame rate : 23.976 FPS
Color space : YUV
Chroma subsampling : 4:2:0
Bit depth : 8 bits
Scan type : Progressive
Bits/(Pixel*Frame) : 0.119
Stream size : 4.49 GiB (75%)
Title : Vull menjar-me el teu pàncrees [1080p 8-bit]
Writing library : x264 core 158 r2984 3759fcb
Encoding settings : cabac=1 / ref=4 / deblock=1:0:0 / analyse=0x3:0x133 / me=umh / subme=10 / psy=1 / psy_rd=1.00:0.00 / mixed_ref=1 / me_range=24 / chroma_me=1 / trellis=2 / 8x8dct=1 / cqm=0 / deadzone=21,11 / fast_pskip=1 / chroma_qp_offset=-2 / threads=18 / lookahead_threads=3 / sliced_threads=0 / nr=0 / decimate=1 / interlaced=0 / bluray_compat=0 / constrained_intra=0 / bframes=8 / b_pyramid=2 / b_adapt=2 / b_bias=0 / direct=3 / weightb=1 / open_gop=0 / weightp=2 / keyint=250 / keyint_min=23 / scenecut=40 / intra_refresh=0 / rc_lookahead=60 / rc=crf / mbtree=1 / crf=15.5 / qcomp=0.60 / qpmin=0 / qpmax=69 / qpstep=4 / vbv_maxrate=62500 / vbv_bufsize=78125 / crf_max=0.0 / nal_hrd=none / filler=0 / ip_ratio=1.40 / aq=1:1.00
Language : Japanese
Default : Yes
Forced : No

Audio #1
ID : 2
Format : AC-3
Format/Info : Audio Coding 3
Format settings, Endianness : Big
Codec ID : A_AC3
Duration : 1 h 48 min
Bit rate mode : Constant
Bit rate : 640 kb/s
Channel(s) : 6 channels
Channel positions : Front: L C R, Side: L R, LFE
Sampling rate : 48.0 kHz
Frame rate : 31.250 FPS (1536 SPF)
Bit depth : 16 bits
Compression mode : Lossy
Stream size : 497 MiB (8%)
Title : Català
Language : Catalan
Service kind : Complete Main
Default : Yes
Forced : No

Audio #2
ID : 3
Format : AC-3
Format/Info : Audio Coding 3
Format settings, Endianness : Big
Codec ID : A_AC3
Duration : 1 h 48 min
Bit rate mode : Constant
Bit rate : 640 kb/s
Channel(s) : 6 channels
Channel positions : Front: L C R, Side: L R, LFE
Sampling rate : 48.0 kHz
Frame rate : 31.250 FPS (1536 SPF)
Bit depth : 16 bits
Compression mode : Lossy
Stream size : 497 MiB (8%)
Title : Castellà
Language : Spanish
Service kind : Complete Main
Default : No
Forced : No

Audio #3
ID : 4
Format : AC-3
Format/Info : Audio Coding 3
Format settings, Endianness : Big
Codec ID : A_AC3
Duration : 1 h 48 min
Bit rate mode : Constant
Bit rate : 640 kb/s
Channel(s) : 6 channels
Channel positions : Front: L C R, Side: L R, LFE
Sampling rate : 48.0 kHz
Frame rate : 31.250 FPS (1536 SPF)
Bit depth : 16 bits
Compression mode : Lossy
Stream size : 497 MiB (8%)
Title : Japonès
Language : Japanese
Service kind : Complete Main
Default : No
Forced : No

Text #1
ID : 5
Format : UTF-8
Codec ID : S_TEXT/UTF8
Codec ID/Info : UTF-8 Plain Text
Duration : 1 h 44 min
Bit rate : 6 b/s
Count of elements : 136
Stream size : 4.67 KiB (0%)
Title : Català [Forçats]
Language : Catalan
Default : Yes
Forced : Yes

Text #2
ID : 6
Format : UTF-8
Codec ID : S_TEXT/UTF8
Codec ID/Info : UTF-8 Plain Text
Duration : 1 h 44 min
Bit rate : 6 b/s
Count of elements : 137
Stream size : 4.64 KiB (0%)
Title : Castellà [Forçats]
Language : Spanish
Default : No
Forced : No

Text #3
ID : 7
Format : PGS
Muxing mode : zlib
Codec ID : S_HDMV/PGS
Codec ID/Info : Picture based subtitle format used on BDs/HD-DVDs
Duration : 1 h 48 min
Bit rate : 43.6 kb/s
Count of elements : 3023
Stream size : 33.7 MiB (1%)
Title : Català
Language : Catalan
Default : No
Forced : No

Text #4
ID : 8
Format : PGS
Muxing mode : zlib
Codec ID : S_HDMV/PGS
Codec ID/Info : Picture based subtitle format used on BDs/HD-DVDs
Duration : 1 h 48 min
Bit rate : 44.8 kb/s
Count of elements : 3004
Stream size : 34.6 MiB (1%)
Title : Castellà
Language : Spanish
Default : No
Forced : No
MediaInfo (10-bit):
Spoiler: mostra
General
Unique ID : 148677125680577266586329093815067289913 (0x6FDA2C3F335B629001985B5EA7052939)
Complete name : Vull menjar-me el teu pàncrees [1080p 10-bit] [Multi àudio AC3 5.1 + subtítols].mkv
Format : Matroska
Format version : Version 4 / Version 2
File size : 6.03 GiB
Duration : 1 h 48 min
Overall bit rate : 7 947 kb/s
Encoded date : UTC 2019-08-13 20:50:24
Writing application : mkvmerge v36.0.0 ('Is That Jazz?') 64-bit
Writing library : libebml v1.3.9 + libmatroska v1.5.2

Video
ID : 1
Format : AVC
Format/Info : Advanced Video Codec
Format profile : High 10@L4
Format settings, CABAC : Yes
Format settings, RefFrames : 4 frames
Codec ID : V_MPEG4/ISO/AVC
Duration : 1 h 48 min
Bit rate : 5 986 kb/s
Width : 1 920 pixels
Height : 1 080 pixels
Display aspect ratio : 16:9
Frame rate mode : Constant
Frame rate : 23.976 FPS
Color space : YUV
Chroma subsampling : 4:2:0
Bit depth : 10 bits
Scan type : Progressive
Bits/(Pixel*Frame) : 0.120
Stream size : 4.54 GiB (75%)
Title : Vull menjar-me el teu pàncrees [1080p]
Writing library : x264 core 158 r2984 3759fcb
Encoding settings : cabac=1 / ref=3 / deblock=1:0:0 / analyse=0x3:0x113 / me=hex / subme=7 / psy=1 / psy_rd=1.00:0.00 / mixed_ref=1 / me_range=16 / chroma_me=1 / trellis=1 / 8x8dct=1 / cqm=0 / deadzone=21,11 / fast_pskip=1 / chroma_qp_offset=-2 / threads=18 / lookahead_threads=3 / sliced_threads=0 / nr=0 / decimate=1 / interlaced=0 / bluray_compat=0 / constrained_intra=0 / bframes=3 / b_pyramid=2 / b_adapt=1 / b_bias=0 / direct=1 / weightb=1 / open_gop=0 / weightp=2 / keyint=250 / keyint_min=23 / scenecut=40 / intra_refresh=0 / rc_lookahead=40 / rc=crf / mbtree=1 / crf=15.5 / qcomp=0.60 / qpmin=0 / qpmax=81 / qpstep=4 / ip_ratio=1.40 / aq=1:1.00
Language : Japanese
Default : Yes
Forced : No

Audio #1
ID : 2
Format : AC-3
Format/Info : Audio Coding 3
Format settings, Endianness : Big
Codec ID : A_AC3
Duration : 1 h 48 min
Bit rate mode : Constant
Bit rate : 640 kb/s
Channel(s) : 6 channels
Channel positions : Front: L C R, Side: L R, LFE
Sampling rate : 48.0 kHz
Frame rate : 31.250 FPS (1536 SPF)
Bit depth : 16 bits
Compression mode : Lossy
Stream size : 497 MiB (8%)
Title : Català
Language : Catalan
Service kind : Complete Main
Default : Yes
Forced : No

Audio #2
ID : 3
Format : AC-3
Format/Info : Audio Coding 3
Format settings, Endianness : Big
Codec ID : A_AC3
Duration : 1 h 48 min
Bit rate mode : Constant
Bit rate : 640 kb/s
Channel(s) : 6 channels
Channel positions : Front: L C R, Side: L R, LFE
Sampling rate : 48.0 kHz
Frame rate : 31.250 FPS (1536 SPF)
Bit depth : 16 bits
Compression mode : Lossy
Stream size : 497 MiB (8%)
Title : Castellà
Language : Spanish
Service kind : Complete Main
Default : No
Forced : No

Audio #3
ID : 4
Format : AC-3
Format/Info : Audio Coding 3
Format settings, Endianness : Big
Codec ID : A_AC3
Duration : 1 h 48 min
Bit rate mode : Constant
Bit rate : 640 kb/s
Channel(s) : 6 channels
Channel positions : Front: L C R, Side: L R, LFE
Sampling rate : 48.0 kHz
Frame rate : 31.250 FPS (1536 SPF)
Bit depth : 16 bits
Compression mode : Lossy
Stream size : 497 MiB (8%)
Title : Japonès
Language : Japanese
Service kind : Complete Main
Default : No
Forced : No

Text #1
ID : 5
Format : UTF-8
Codec ID : S_TEXT/UTF8
Codec ID/Info : UTF-8 Plain Text
Duration : 1 h 44 min
Bit rate : 6 b/s
Count of elements : 136
Stream size : 4.67 KiB (0%)
Title : Català [Forçats]
Language : Catalan
Default : Yes
Forced : Yes

Text #2
ID : 6
Format : UTF-8
Codec ID : S_TEXT/UTF8
Codec ID/Info : UTF-8 Plain Text
Duration : 1 h 44 min
Bit rate : 6 b/s
Count of elements : 137
Stream size : 4.64 KiB (0%)
Title : Castellà [Forçats]
Language : Spanish
Default : No
Forced : No

Text #3
ID : 7
Format : PGS
Muxing mode : zlib
Codec ID : S_HDMV/PGS
Codec ID/Info : Picture based subtitle format used on BDs/HD-DVDs
Duration : 1 h 48 min
Bit rate : 43.6 kb/s
Count of elements : 3023
Stream size : 33.7 MiB (1%)
Title : Català
Language : Catalan
Default : No
Forced : No

Text #4
ID : 8
Format : PGS
Muxing mode : zlib
Codec ID : S_HDMV/PGS
Codec ID/Info : Picture based subtitle format used on BDs/HD-DVDs
Duration : 1 h 48 min
Bit rate : 44.8 kb/s
Count of elements : 3004
Stream size : 34.6 MiB (1%)
Title : Castellà
Language : Spanish
Default : No
Forced : No
roger_anime_cat l’ha editat per darrera vegada el dia: dv. 16 ago. 2019, 13:37, en total s’ha editat 7 vegades.
 
Avatar de l’usuari
Frydivx
Sanshinchu
Sanshinchu
Entrades: 296
Membre des de: dc. 23 maig 2012, 17:59

Re: [MEGA] Vull menjar-me el teu pàncrees [BDRip 1080p] [Català, castellà i japonès + subtítols]

dc. 14 ago. 2019, 12:40

Gràcies roger per l'aportació!

Salut!
 
Avatar de l’usuari
roger_anime_cat
Arashinchu
Arashinchu
Entrades: 90
Membre des de: dv. 03 maig 2013, 17:29

Re: [MEGA] Vull menjar-me el teu pàncrees [BDRip 1080p] [Català, castellà i japonès + subtítols]

dc. 14 ago. 2019, 13:34

Frydivx ha escrit:
Gràcies roger per l'aportació!

Salut!

De res, disfruteu-la!
 
Avatar de l’usuari
roger_anime_cat
Arashinchu
Arashinchu
Entrades: 90
Membre des de: dv. 03 maig 2013, 17:29

Re: [MEGA] Vull menjar-me el teu pàncrees [BDRip 1080p] [Català, castellà i japonès + subtítols]

dc. 14 ago. 2019, 22:06

Afegida la versió de 8-bit.
Edit: He editat la versió de 8-bit perquè les Smart TV (del 2014 o potser menys) puguin reproduir-la.
 
Avatar de l’usuari
Lluis_Cat
Arashinchu
Arashinchu
Entrades: 86
Membre des de: ds. 05 ago. 2017, 12:48
Ubicació: Badalona
Contacta:

Re: [MEGA] Vull menjar-me el teu pàncrees [BDRip 1080p] [Català, castellà i japonès + subtítols]

dv. 16 ago. 2019, 12:48

Tinc problemes amb la versió de 10 bits. No comença la descàrrega i diu que es necessita un compte. La de 8 bits sí que es descarrega.
 
Avatar de l’usuari
Hakyra
Sanshinchu
Sanshinchu
Entrades: 210
Membre des de: dj. 06 set. 2018, 15:00

Re: [MEGA] Vull menjar-me el teu pàncrees [BDRip 1080p] [Català, castellà i japonès + subtítols]

dv. 16 ago. 2019, 13:25

Lluis_Cat ha escrit:
Tinc problemes amb la versió de 10 bits. No comença la descàrrega i diu que es necessita un compte. La de 8 bits sí que es descarrega.

Segurament necesites un compte perque sobrepasa el limit de 6GB
 
Avatar de l’usuari
Lluis_Cat
Arashinchu
Arashinchu
Entrades: 86
Membre des de: ds. 05 ago. 2017, 12:48
Ubicació: Badalona
Contacta:

Re: [MEGA] Vull menjar-me el teu pàncrees [BDRip 1080p] [Català, castellà i japonès + subtítols]

dv. 16 ago. 2019, 13:29

Hakyra ha escrit:
Lluis_Cat ha escrit:
Tinc problemes amb la versió de 10 bits. No comença la descàrrega i diu que es necessita un compte. La de 8 bits sí que es descarrega.

Segurament necesites un compte perque sobrepasa el limit de 6GB

Compte de què? De MEGA? Ja en tinc però no el sé posar al jdownloader. Potser si es refereix a compte premium, no en tinc :/
Llavors no em puc descarregar el vídeo, quina pena.
 
Avatar de l’usuari
roger_anime_cat
Arashinchu
Arashinchu
Entrades: 90
Membre des de: dv. 03 maig 2013, 17:29

Re: [MEGA] Vull menjar-me el teu pàncrees [BDRip 1080p] [Català, castellà i japonès + subtítols]

dv. 16 ago. 2019, 13:43

Lluis_Cat ha escrit:
Tinc problemes amb la versió de 10 bits. No comença la descàrrega i diu que es necessita un compte. La de 8 bits sí que es descarrega.

Com que la de 10-bit sobrepassa el límit de 6 GB, s'hauria d'aturar en aquell punt, no impedir-te que te la baixis. Via web sense compte em deixa, però m'avisa que sobrepassa el límit i m'hauré d'esperar quan això passi.
 
Avatar de l’usuari
Lluis_Cat
Arashinchu
Arashinchu
Entrades: 86
Membre des de: ds. 05 ago. 2017, 12:48
Ubicació: Badalona
Contacta:

Re: [MEGA] Vull menjar-me el teu pàncrees [BDRip 1080p] [Català, castellà i japonès + subtítols]

dv. 16 ago. 2019, 13:45

roger_anime_cat ha escrit:
Lluis_Cat ha escrit:
Tinc problemes amb la versió de 10 bits. No comença la descàrrega i diu que es necessita un compte. La de 8 bits sí que es descarrega.

Com que la de 10-bit sobrepassa el límit de 6 GB, s'hauria d'aturar en aquell punt, no impedir-te que te la baixis. Via web sense compte em deixa, però m'avisa que sobrepassa el límit i m'hauré d'esperar quan això passi.

Doncs no em deixa començar-la :ein: . Com ho faig per fer-ho via web?? Amb el MegaSync em va bé.
 
Avatar de l’usuari
roger_anime_cat
Arashinchu
Arashinchu
Entrades: 90
Membre des de: dv. 03 maig 2013, 17:29

Re: [MEGA] Vull menjar-me el teu pàncrees [BDRip 1080p] [Català, castellà i japonès + subtítols]

dv. 16 ago. 2019, 13:53

Lluis_Cat ha escrit:
roger_anime_cat ha escrit:
Lluis_Cat ha escrit:
Tinc problemes amb la versió de 10 bits. No comença la descàrrega i diu que es necessita un compte. La de 8 bits sí que es descarrega.

Com que la de 10-bit sobrepassa el límit de 6 GB, s'hauria d'aturar en aquell punt, no impedir-te que te la baixis. Via web sense compte em deixa, però m'avisa que sobrepassa el límit i m'hauré d'esperar quan això passi.

Doncs no em deixa començar-la :ein: . Com ho faig per fer-ho via web?? Amb el MegaSync em va bé.

T'he enviat el link via MP.

Una altra cosa, la versió de 8-bit és completament bona, jo que soc un "novato" vaig fer la de 10-bit pq pensava que seria millor i tal, però el vídeo original (BDRemux) també està a 8-bit, llavors no hi ha diferència xD (té més bitrate (el BDRemux) això sí, però ja està).
 
JaviSM
Usuari
Usuari
Entrades: 3
Membre des de: ds. 17 ago. 2019, 13:31

Re: [MEGA] Vull menjar-me el teu pàncrees [BDRip 1080p] [Català, castellà i japonès + subtítols]

ds. 17 ago. 2019, 13:35

Hem pots passar al link a mi també que tinc problemes amb el JDownloader
 
Avatar de l’usuari
roger_anime_cat
Arashinchu
Arashinchu
Entrades: 90
Membre des de: dv. 03 maig 2013, 17:29

Re: [MEGA] Vull menjar-me el teu pàncrees [BDRip 1080p] [Català, castellà i japonès + subtítols]

ds. 17 ago. 2019, 16:26

JaviSM ha escrit:
Hem pots passar al link a mi també que tinc problemes amb el JDownloader

Ara, hauries de poder. He partit el fitxer en 3 parts.
 
JaviSM
Usuari
Usuari
Entrades: 3
Membre des de: ds. 17 ago. 2019, 13:31

Re: [MEGA] Vull menjar-me el teu pàncrees [BDRip 1080p] [Català, castellà i japonès + subtítols]

ds. 17 ago. 2019, 23:17

segueixo tenin problemes quan afexei-ho l'arxiu al JDownloader es queda penjat
 
Avatar de l’usuari
roger_anime_cat
Arashinchu
Arashinchu
Entrades: 90
Membre des de: dv. 03 maig 2013, 17:29

Re: [MEGA] Vull menjar-me el teu pàncrees [BDRip 1080p] [Català, castellà i japonès + subtítols]

dg. 18 ago. 2019, 00:03

JaviSM ha escrit:
segueixo tenin problemes quan afexei-ho l'arxiu al JDownloader es queda penjat

Quina mena de problemes? Que se t'aturi quan arriba al límit de 6 GB?

Imatge
 
JaviSM
Usuari
Usuari
Entrades: 3
Membre des de: ds. 17 ago. 2019, 13:31

Re: [MEGA] Vull menjar-me el teu pàncrees [BDRip 1080p] [Català, castellà i japonès + subtítols]

dg. 18 ago. 2019, 13:08

Ja ho he solucionat i me l' he descàrregat. Moltes gràcies per l'ajuda :yeah:

Qui està connectat

Usuaris navegant en aquest fòrum: No hi ha cap usuari registrat i 6 visitants