Anime i manga en català

Moderadors: Steve Maister, wachimiro, Bilkoff

 
Avatar de l’usuari
Bilkoff
Moderadors
Moderadors
Entrades: 789
Membre des de: dt. 05 oct. 2004, 19:22
Ubicació: Borriana
Contacta:

[MU] Gake no Ue no Ponyo |BDRip|1080p|jap-esp-cat-basc ac3

dt. 26 oct. 2010, 23:44

La Ponyo al penya-segat
崖の上のポニョ, Gake no Ue no Ponyo

Imatge


ANY: 2008
DURACIÓ: 100 min.
DIRECTOR: Hayao Miyazaki
GUIÓN: Hayao Miyazaki
MÚSICA: Joe Hisaishi
PRODUCTORA: Studio Ghibli
SINOPSIS: "Ponyo en el acantilado (Gake no Ue no Ponyo) se desarrolla en una ciudad junto al mar en la que un niño de 5 años, Sosuke, rescata de una escollera llena de basura a un pez rojo al que llama Ponyo. La amistad entre Sosuke y Ponyo crece hasta el punto que Ponyo quiere convertirse en humano.
Esa trama es el pretexto con el que Miyazaki habla, por ejemplo, de la relación entre los seres humanos y la naturaleza, de la necesidad del equilibrio entre ambos y de la amistad entre los niños, y entre los adultos."

Contenidor: mkv.
Formats: x264, ac3 i srt.
Àudio: Català, basc, castellà, japonès.
Subtítols: Català, castellà, basc, anglès.
Qualitat: Rip del blu-ray original.
Mida total: 4'37 Gb (1DVD) partida en 5 parts.

Report Mediainfo
General
Complete name : H:\Gake no Ue no Ponyo.mkv
Format : Matroska
File size : 4.37 GiB
Duration : 1h 40mn
Overall bit rate : 6 210 Kbps
Movie name : Gake no Ue no Ponyo
Encoded date : UTC 2010-10-12 14:07:16
Writing application : mkvmerge v4.0.0 ('The Stars were mine') built on Jun 6 2010 16:18:42
Writing library : libebml v1.0.0 + libmatroska v1.0.0

Video
ID : 1
Format : AVC
Format/Info : Advanced Video Codec
Format profile : High@L5.1
Format settings, CABAC : Yes
Format settings, ReFrames : 16 frames
Muxing mode : Container profile=Unknown@5.1
Codec ID : V_MPEG4/ISO/AVC
Duration : 1h 40mn
Bit rate : 4 030 Kbps
Width : 1 920 pixels
Height : 1 048 pixels
Display aspect ratio : 1.850
Frame rate : 23.976 fps
Color space : YUV
Chroma subsampling : 4:2:0
Bit depth : 8 bits
Scan type : Progressive
Bits/(Pixel*Frame) : 0.084
Stream size : 2.75 GiB (63%)
Writing library : x264 core 98 r1649 c54c47d
Encoding settings : cabac=1 / ref=16 / deblock=1:-1:-1 / analyse=0x3:0x133 / me=umh / subme=10 / psy=1 / psy_rd=1.00:0.15 / mixed_ref=1 / me_range=24 / chroma_me=1 / trellis=2 / 8x8dct=1 / cqm=0 / deadzone=21,11 / fast_pskip=1 / chroma_qp_offset=-3 / threads=6 / sliced_threads=0 / nr=0 / decimate=1 / interlaced=0 / constrained_intra=0 / bframes=8 / b_pyramid=2 / b_adapt=2 / b_bias=0 / direct=3 / weightb=1 / weightp=2 / keyint=250 / keyint_min=25 / scenecut=40 / intra_refresh=0 / rc_lookahead=60 / rc=2pass / mbtree=1 / bitrate=4030 / ratetol=1.0 / qcomp=0.60 / qpmin=10 / qpmax=51 / qpstep=4 / cplxblur=20.0 / qblur=0.5 / ip_ratio=1.40 / aq=1:1.00

Audio #1
ID : 2
Format : AC-3
Format/Info : Audio Coding 3
Mode extension : CM (complete main)
Codec ID : A_AC3
Duration : 1h 40mn
Bit rate mode : Constant
Bit rate : 640 Kbps
Channel(s) : 6 channels
Channel positions : Front: L C R, Side: L R, LFE
Sampling rate : 48.0 KHz
Bit depth : 16 bits
Stream size : 462 MiB (10%)
Language : Japanese

Audio #2
ID : 3
Format : AC-3
Format/Info : Audio Coding 3
Mode extension : CM (complete main)
Codec ID : A_AC3
Duration : 1h 40mn
Bit rate mode : Constant
Bit rate : 640 Kbps
Channel(s) : 6 channels
Channel positions : Front: L C R, Side: L R, LFE
Sampling rate : 48.0 KHz
Bit depth : 16 bits
Stream size : 462 MiB (10%)
Language : Spanish

Audio #3
ID : 4
Format : AC-3
Format/Info : Audio Coding 3
Mode extension : CM (complete main)
Codec ID : A_AC3
Duration : 1h 40mn
Bit rate mode : Constant
Bit rate : 448 Kbps
Channel(s) : 6 channels
Channel positions : Front: L C R, Side: L R, LFE
Sampling rate : 48.0 KHz
Bit depth : 16 bits
Stream size : 323 MiB (7%)
Language : Catalan

Audio #4
ID : 5
Format : AC-3
Format/Info : Audio Coding 3
Mode extension : CM (complete main)
Codec ID : A_AC3
Duration : 1h 40mn
Bit rate mode : Constant
Bit rate : 448 Kbps
Channel(s) : 6 channels
Channel positions : Front: L C R, Side: L R, LFE
Sampling rate : 48.0 KHz
Bit depth : 16 bits
Stream size : 323 MiB (7%)
Language : Basque

Text #1
ID : 6
Format : UTF-8
Codec ID : S_TEXT/UTF8
Codec ID/Info : UTF-8 Plain Text
Language : Basque

Text #2
ID : 7
Format : UTF-8
Codec ID : S_TEXT/UTF8
Codec ID/Info : UTF-8 Plain Text
Title : forced
Language : Basque

Text #3
ID : 8
Format : UTF-8
Codec ID : S_TEXT/UTF8
Codec ID/Info : UTF-8 Plain Text
Title : forced
Language : Catalan

Text #4
ID : 9
Format : UTF-8
Codec ID : S_TEXT/UTF8
Codec ID/Info : UTF-8 Plain Text
Language : Catalan

Text #5
ID : 10
Format : UTF-8
Codec ID : S_TEXT/UTF8
Codec ID/Info : UTF-8 Plain Text
Language : English

Text #6
ID : 11
Format : UTF-8
Codec ID : S_TEXT/UTF8
Codec ID/Info : UTF-8 Plain Text
Title : forced
Language : Spanish

Text #7
ID : 12
Format : UTF-8
Codec ID : S_TEXT/UTF8
Codec ID/Info : UTF-8 Plain Text
Language : Spanish

Menu
00:00:00.000 : en:00:00:00.000
00:04:34.983 : en:00:04:34.983
00:09:58.306 : en:00:09:58.306
00:16:14.098 : en:00:16:14.098
00:21:02.094 : en:00:21:02.094
00:27:07.584 : en:00:27:07.584
00:35:21.369 : en:00:35:21.369
00:41:21.771 : en:00:41:21.771
00:48:34.203 : en:00:48:34.203
00:55:21.652 : en:00:55:21.652
01:02:00.675 : en:01:02:00.675
01:08:53.171 : en:01:08:53.171
01:12:58.833 : en:01:12:58.833
01:19:22.925 : en:01:19:22.925
01:24:30.857 : en:01:24:30.857
01:29:08.885 : en:01:29:08.885
01:34:54.772 : en:01:34:54.772
01:39:09.902 : en:01:39:09.902

http://www.megaupload.com/?d=IL7LNJIM
http://www.megaupload.com/?d=MONIYS0H
http://www.megaupload.com/?d=U49MT1G0
http://www.megaupload.com/?d=PI3IN8ZM
http://www.megaupload.com/?d=OOEDBS3B
 
Avatar de l’usuari
bitERROR
Ryushinchu
Ryushinchu
Entrades: 2811
Membre des de: dt. 16 des. 2003, 01:57
Ubicació: El cajón de las braguitas
Contacta:

Re: Gake no Ue no Ponyo |BDRip|1080p|jap-esp-cat-basc ac3|4'37Gb

dv. 29 oct. 2010, 13:11

Gràcies sr. Bilkoff. Me sé d'una nina a qui li agradarà això. :adeu:
Imatge Imatge
 
Avatar de l’usuari
aleixzero
Usuari
Usuari
Entrades: 14
Membre des de: dj. 21 oct. 2010, 20:16

Re: Gake no Ue no Ponyo |BDRip|1080p|jap-esp-cat-basc ac3|4'37Gb

dc. 03 nov. 2010, 11:49

No es de les millors de Miyazaki, pero la baixaré.
Gràcies
 
Avatar de l’usuari
rayador
Ishinchu
Ishinchu
Entrades: 44
Membre des de: ds. 25 set. 2010, 20:19

Re: [MU] Gake no Ue no Ponyo |BDRip|1080p|jap-esp-cat-basc a

dv. 21 des. 2012, 11:51

Aix! Sembla que faig tard!
 
Avatar de l’usuari
Bilkoff
Moderadors
Moderadors
Entrades: 789
Membre des de: dt. 05 oct. 2004, 19:22
Ubicació: Borriana
Contacta:

Re: [MU] Gake no Ue no Ponyo |BDRip|1080p|jap-esp-cat-basc a

dg. 23 des. 2012, 00:46

Ostres, he anat a repujar-la pero vaig guardar una versió que no tenia el àudio en català. Pot repujarla algú?
 
Avatar de l’usuari
wachimiro
Moderadors
Moderadors
Entrades: 1746
Membre des de: dg. 19 feb. 2006, 16:53
Ubicació: China

Re: [MU] Gake no Ue no Ponyo |BDRip|1080p|jap-esp-cat-basc a

dt. 25 des. 2012, 20:59

Jo crec que la tinc, e mirat en els discos durs que tinc aqui i no la trobo, em queda un mes per mirar pero no tinc el cable necessari, en un parell de dies et dic si la tinc.


Edit: No lña tinc, la tenia nomes a MU, pensava que la tenia als discos durs, pero no l'he pogut trobar.
Si teniu cap problema per descarregar amb JDownloader feu servir aquesta versió i actualitzeu aquí la trobareu. -->>JDownloader <<--
 
suloku
Ushinchu
Ushinchu
Entrades: 1010
Membre des de: dl. 02 jul. 2007, 13:10

Re: [MU] Gake no Ue no Ponyo |BDRip|1080p|jap-esp-cat-basc a

dj. 27 des. 2012, 11:12

Jo diria que la tinc, després ho miro

EDIT: no, tinc una altra versio, triaudio y en AAC, no ac3

EDIT2: el que si que tinc es la versio DVDrip de l'emule, que te l'audio catala en ac3 5.1
 
Minimalist
Usuari
Usuari
Entrades: 13
Membre des de: dc. 14 des. 2011, 23:33

Re: [MU] Gake no Ue no Ponyo |BDRip|1080p|jap-esp-cat-basc a

dj. 03 gen. 2013, 21:57

Algú podria compartir els audios o bé la pel·lícula? Gràcies.
 
Avatar de l’usuari
Kuma
Usuari
Usuari
Entrades: 9
Membre des de: dg. 20 nov. 2011, 02:00

Re: [MU] Gake no Ue no Ponyo |BDRip|1080p|jap-esp-cat-basc a

dt. 22 gen. 2013, 23:17

Hola! Fa dies que segueixo aquest post a veure si finalment algú podia penjar-la. Però no ha hagut sort, oi? :S
Va, ànims!, a veure si algú pot pujar una versió digne que és l'única que, per circumstàncies de la vida, no he pogut veure encara.

Molt agraït per endevant! ;)
 
Avatar de l’usuari
rayador
Ishinchu
Ishinchu
Entrades: 44
Membre des de: ds. 25 set. 2010, 20:19

Re: [MU] Gake no Ue no Ponyo |BDRip|1080p|jap-esp-cat-basc a

dg. 03 feb. 2013, 19:14

Bilkof, suloku. Us complementeu. Creieu que us podrieu posar d'acord per posar els audios en català de la versió DVDrip de l'emule que tens (suloku) a la versió que tens guardada (Bilkof)? Si es que es poden sincronitzar be, es clar... Digueu si o no un cop us poseu d'acord siusplau.

I moltes gràcies per l'intent! :yeah:
 
suloku
Ushinchu
Ushinchu
Entrades: 1010
Membre des de: dl. 02 jul. 2007, 13:10

Re: [MU] Gake no Ue no Ponyo |BDRip|1080p|jap-esp-cat-basc a

dl. 04 feb. 2013, 00:23

A mi no em costa gaire pujar l'audio si en Bilkoff intenta muntar-ho a veure si serveix el mateix. A veure què diu.
 
Avatar de l’usuari
Kuma
Usuari
Usuari
Entrades: 9
Membre des de: dg. 20 nov. 2011, 02:00

Re: [MU] Gake no Ue no Ponyo |BDRip|1080p|jap-esp-cat-basc a

dv. 08 feb. 2013, 21:35

Sí, sí!! Vaaaaa... Bilkoff!! Bilkoff!! :yeah:

Qui està connectat

Usuaris navegant en aquest fòrum: No hi ha cap usuari registrat i 6 visitants