Anime i manga en català

Moderadors: Steve Maister, wachimiro, Bilkoff

 
Avatar de l’usuari
Bilkoff
Moderadors
Moderadors
Entrades: 779
Membre des de: dt. 05 oct. 2004, 19:22
Ubicació: Borriana
Contacta:

Ghost in the Shell 2.0

ds. 26 març 2011, 17:06

Ghost in the Shell 2.0
攻殻機動隊, Gōsuto In Za Sheru/Kōkaku Kidōtai

Imatge


ANY: 1995
DURACIÓ: 82 min.
DIRECTOR: Mamoru Oshii
GUIO: Masamune Shirow (història original), Kazunori Itō (animació)
MÚSICA: Kenji Kawai
PRODUCTORA: Production I.G
SINOPSIS: "Ambientada en el siglo XXI, Ghost in the Shell se presenta en una primera lectura como un thriller futurista de espionaje, al narrar las misiones de Motoko Kusanagi, la Mayor a cargo de las operaciones encubiertas de la Sección Policial de Seguridad pública 9 o simplemente «Sección 9», especializada en crímenes tecnológicos. La misma Kusanagi es un cyborg, un cerebro humano en un cuerpo artificial, lo que le permite ser capaz de realizar hazañas sobrehumanas especialmente requeridas por su labor."

Contenidor: mkv.
Formats: x264, ac3 i srt.
Àudio: Castellà, català, japonès.
Subtítols: Castellà.
Qualitat: Rip del blu-ray original.
Mida total: 4'37 Gb (1DVD) partida en 5 parts.

Report Mediainfo
General
Unique ID : 234320965008293541730436365560609847116 (0xB04893891968D0BC81D612A0E8A5374C)
Complete name : F:\Ghost in the Shell 2.0.mkv
Format : Matroska
File size : 4.37 GiB
Duration : 1h 29mn
Overall bit rate : 6 985 Kbps
Movie name : Ghost in the Shell 2.0
Encoded date : UTC 2011-03-25 02:00:01
Writing application : mkvmerge v4.6.0 ('Still Crazy After All These Years') creado el Mar 10 2011 02:50:32
Writing library : libebml v1.2.0 + libmatroska v1.1.0

Video
ID : 1
Format : AVC
Format/Info : Advanced Video Codec
Format profile : High@L4.1
Format settings, CABAC : Yes
Format settings, ReFrames : 4 frames
Muxing mode : Header stripping
Codec ID : V_MPEG4/ISO/AVC
Duration : 1h 29mn
Bit rate : 4 926 Kbps
Nominal bit rate : 5 565 Kbps
Width : 1 920 pixels
Height : 1 080 pixels
Display aspect ratio : 16:9
Frame rate : 23.976 fps
Color space : YUV
Chroma subsampling : 4:2:0
Bit depth : 8 bits
Scan type : Progressive
Bits/(Pixel*Frame) : 0.099
Stream size : 3.08 GiB (71%)
Writing library : x264 core 114 r1913 5fd3dce
Encoding settings : cabac=1 / ref=4 / deblock=1:1:1 / analyse=0x3:0x133 / me=umh / subme=10 / psy=1 / psy_rd=0.40:0.00 / mixed_ref=1 / me_range=24 / chroma_me=1 / trellis=2 / 8x8dct=1 / cqm=0 / deadzone=21,11 / fast_pskip=1 / chroma_qp_offset=-2 / threads=6 / sliced_threads=0 / nr=0 / decimate=1 / interlaced=0 / constrained_intra=0 / bframes=10 / b_pyramid=2 / b_adapt=2 / b_bias=0 / direct=3 / weightb=1 / open_gop=0 / weightp=2 / keyint=250 / keyint_min=23 / scenecut=40 / intra_refresh=0 / rc_lookahead=60 / rc=2pass / mbtree=1 / bitrate=5565 / ratetol=1.0 / qcomp=0.60 / qpmin=0 / qpmax=69 / qpstep=4 / cplxblur=20.0 / qblur=0.5 / ip_ratio=1.40 / aq=1:0.60

Audio #1
ID : 2
Format : AC-3
Format/Info : Audio Coding 3
Mode extension : CM (complete main)
Muxing mode : Header stripping
Codec ID : A_AC3
Duration : 1h 29mn
Bit rate mode : Constant
Bit rate : 640 Kbps
Channel(s) : 6 channels
Channel positions : Front: L C R, Side: L R, LFE
Sampling rate : 48.0 KHz
Bit depth : 16 bits
Compression mode : Lossy
Stream size : 410 MiB (9%)
Language : Japanese

Audio #2
ID : 3
Format : AC-3
Format/Info : Audio Coding 3
Mode extension : CM (complete main)
Muxing mode : Header stripping
Codec ID : A_AC3
Duration : 1h 29mn
Bit rate mode : Constant
Bit rate : 640 Kbps
Channel(s) : 6 channels
Channel positions : Front: L C R, Side: L R, LFE
Sampling rate : 48.0 KHz
Bit depth : 16 bits
Compression mode : Lossy
Stream size : 410 MiB (9%)
Language : Spanish

Audio #3
ID : 4
Format : AC-3
Format/Info : Audio Coding 3
Mode extension : CM (complete main)
Muxing mode : Header stripping
Codec ID : A_AC3
Duration : 1h 29mn
Bit rate mode : Constant
Bit rate : 640 Kbps
Channel(s) : 2 channels
Channel positions : Front: L R
Sampling rate : 48.0 KHz
Bit depth : 16 bits
Compression mode : Lossy
Stream size : 410 MiB (9%)
Language : Catalan

Text
ID : 5
Format : UTF-8
Codec ID : S_TEXT/UTF8
Codec ID/Info : UTF-8 Plain Text
Language : Spanish

Menu
00:00:00.000 : en:00:00:00.000
00:07:36.456 : en:00:07:36.456
00:13:29.809 : en:00:13:29.809
00:19:46.185 : en:00:19:46.185
00:26:08.567 : en:00:26:08.567
00:32:49.968 : en:00:32:49.968
00:38:32.310 : en:00:38:32.310
00:45:22.720 : en:00:45:22.720
00:53:14.191 : en:00:53:14.191
00:59:32.569 : en:00:59:32.569
01:06:14.971 : en:01:06:14.971
01:13:59.435 : en:01:13:59.435



Yandex
Bilkoff l’ha editat per darrera vegada el dia: dt. 15 oct. 2013, 03:32, en total s’ha editat 4 vegades.
 
Avatar de l’usuari
xaiman
Ryushinchu
Ryushinchu
Entrades: 2437
Membre des de: dv. 15 set. 2006, 22:28
Ubicació: al planeta d'en kaito

Re: [MU-1F] Ghost in the Shell 2.0

ds. 26 març 2011, 21:05

moltes grasies esta encara no la via vist a10 :yeah:
 
turtun
Usuari
Usuari
Entrades: 21
Membre des de: dj. 05 març 2009, 03:41

Re: [MU-1F] Ghost in the Shell 2.0

dt. 29 març 2011, 20:32

Moltes gracies per la peli! aquesta es de les bones :yeah:
 
Avatar de l’usuari
bos257
Sushinchu
Sushinchu
Entrades: 636
Membre des de: dc. 18 maig 2005, 17:48
Ubicació: Barna
Contacta:

Re: [MU-1F] Ghost in the Shell 2.0

dt. 19 abr. 2011, 19:57

Moltes gracies. Aquesta es la versió nova o l'antiga?
Imatge
 
Avatar de l’usuari
Bilkoff
Moderadors
Moderadors
Entrades: 779
Membre des de: dt. 05 oct. 2004, 19:22
Ubicació: Borriana
Contacta:

Re: [MU-1F] Ghost in the Shell 2.0

dc. 20 abr. 2011, 01:14

bos257 ha escrit:
Moltes gracies. Aquesta es la versió nova o l'antiga?

La nova
 
Avatar de l’usuari
dvx
Ishinchu
Ishinchu
Entrades: 49
Membre des de: dl. 04 oct. 2010, 23:24
Ubicació: Marseille

Re: [MU-1F] Ghost in the Shell 2.0

dc. 20 abr. 2011, 14:54

Gracies, jo vaig veure la versio vella, aveure com es la nova :profident:
 
Avatar de l’usuari
Kero
Administrador
Administrador
Entrades: 1893
Membre des de: dc. 03 des. 2003, 16:00
Ubicació: Dressrosa

Re: [MU-1F] Ghost in the Shell 2.0

dc. 20 abr. 2011, 16:11

Gràcies Bilkoff, sempre amb qualitat hiperchachi :D
The weak don't get to choose how they die. - Donquixote Doflamingo
 
Avatar de l’usuari
sourfingers
Ishinchu
Ishinchu
Entrades: 35
Membre des de: dc. 25 maig 2011, 14:52

Re: [MU-1F] Ghost in the Shell 2.0

dj. 02 juny 2011, 01:01

GRACIES!!!!!!!!!! :yeah:
DR.CALAMAR
 
Avatar de l’usuari
condedooku
Sushinchu
Sushinchu
Entrades: 760
Membre des de: dj. 18 feb. 2010, 18:24

Re: [MU-1F] Ghost in the Shell 2.0

dl. 06 juny 2011, 13:23

Moltes gracies Bilkoff :yeah:

:adeu:
 
Avatar de l’usuari
wachimiro
Moderadors
Moderadors
Entrades: 1684
Membre des de: dg. 19 feb. 2006, 16:53
Ubicació: China

Re: [MU-1F] Ghost in the Shell 2.0

dt. 28 juny 2011, 01:06

Bilkoff han reportat els links i els han esborrat de MU, es el que passa quan poses els links directes, que es publiquen a moltes webs i si arriba a alguna com taringa estigues segur que si no estan encriptats els esborraran. Ja me la descarrego per 1fichier i la repujo, pero l'encriptare per que no torni a pasar.
Si teniu cap problema per descarregar amb JDownloader feu servir aquesta versió i actualitzeu aquí la trobareu. -->>JDownloader <<--
 
impatiens
Usuari
Usuari
Entrades: 17
Membre des de: dv. 07 set. 2007, 17:41

Re: [MU-1F] Ghost in the Shell 2.0

dg. 08 jul. 2012, 15:01

gràcies
 
Avatar de l’usuari
Bilkoff
Moderadors
Moderadors
Entrades: 779
Membre des de: dt. 05 oct. 2004, 19:22
Ubicació: Borriana
Contacta:

Re: [UL-1F-PL] Ghost in the Shell 2.0

dg. 12 maig 2013, 23:46

 
Avatar de l’usuari
Shakast
Ishinchu
Ishinchu
Entrades: 29
Membre des de: dg. 23 gen. 2011, 21:40

Re: [UL-1F-PL] Ghost in the Shell 2.0

ds. 05 oct. 2013, 11:58

Fa temps que volira veurela, y no trobava links per enlloc, i quan ya creia que la tenia...

Els links de Uploaded i Putlocker están caiguts, estic descarregant desde 1fichier pero descarrega massa lent pero almenys aconseguiré veurela per fi.

Gracias per l'esforç! :)
 
Avatar de l’usuari
McFlai 2.0
Ishinchu
Ishinchu
Entrades: 62
Membre des de: dg. 28 feb. 2016, 16:59

Re: Ghost in the Shell 2.0

dt. 05 abr. 2016, 20:43

la he pogut descarregar perfectament de yandex-disc, segueixen vius a dia d'avui, moltissimes gracies!!
 
mco234
Arashinchu
Arashinchu
Entrades: 161
Membre des de: dl. 10 oct. 2011, 23:32

Re: Ghost in the Shell 2.0

ds. 09 abr. 2016, 20:57

Gracies.

Salutacions.

Qui està connectat

Usuaris navegant en aquest fòrum: No hi ha cap usuari registrat i 9 visitants