Anime i manga en català

Moderadors: Steve Maister, wachimiro, Bilkoff

 
Avatar de l’usuari
Bilkoff
Moderadors
Moderadors
Entrades: 779
Membre des de: dt. 05 oct. 2004, 19:22
Ubicació: Borriana
Contacta:

L'espasa del foraster (aka "El samurai sense nom")

dt. 03 maig 2011, 18:57

L'espasa del foraster
ストレンヂア 無皇刃譚 Sutorenjia Mukōhadan

Imatge


ANY: 2007
DURACIÓ: 102 min.
DIRECTOR: Masahiro Andō
GUIO: Fumihito Takayama
MÚSICA: Naoki Satō
PRODUCTOR: Masahiko Minami
SINOPSIS: "Durante el periodo de guerra entre estados o Sengoku, un ronin llamado Nanashi, que significa "sin nombre", salva a un niño llamado Kotarou y a su perro Tobimaru en un templo abandonado. Kotarou no tiene familia y es perseguido por una misteriosa organización militar de China, por lo que contrata a Nanashi como guardaespaldas. Nanashi, que ha abandonado su nombre junto a su pasado, ha "sellado" su espada debido a un suceso pasado por el que es atormentado en forma de pesadillas. El encargado de perseguir a Kotarou es un hombre llamado Rarou, que pertenece a la organización de origen chino y que esta bajo las ordenes de un anciano llamado Byakuran, aunque, a diferencia de sus compañeros, Rarou no posee un concepto de "Rey" y solo busca luchar contra el más fuerte. "

Contenidor: mkv.
Formats: x264, dts, ac3 i srt.
Àudio: Castellà, català, japonès.
Subtítols: Castellà, català, francés i anglès.
Qualitat: Rip del blu-ray original.
Mida total: 4'37 Gb (1DVD) partida en 5 parts.

Report Mediainfo
General
Unique ID : 213988194438080662144169545605902008781 (0xA0FCA08C5627F3ABA466EC74270481CD)
Complete name : H:\L'espasa del foraster.mkv
Format : Matroska
File size : 4.37 GiB
Duration : 1h 42mn
Overall bit rate : 6 086 Kbps
Movie name : Sutorenjia Mukōhadan
Encoded date : UTC 2011-04-04 20:21:33
Writing application : mkvmerge v4.6.0 ('Still Crazy After All These Years') creado el Mar 10 2011 02:50:32
Writing library : libebml v1.2.0 + libmatroska v1.1.0

Video
ID : 1
Format : AVC
Format/Info : Advanced Video Codec
Format profile : High@L5.1
Format settings, CABAC : Yes
Format settings, ReFrames : 16 frames
Muxing mode : Header stripping
Codec ID : V_MPEG4/ISO/AVC
Duration : 1h 42mn
Bit rate : 3 922 Kbps
Width : 1 920 pixels
Height : 1 080 pixels
Display aspect ratio : 16:9
Frame rate : 23.976 fps
Color space : YUV
Chroma subsampling : 4:2:0
Bit depth : 8 bits
Scan type : Progressive
Bits/(Pixel*Frame) : 0.079
Stream size : 2.74 GiB (63%)
Writing library : x264 core 114 r1913 5fd3dce
Encoding settings : cabac=1 / ref=16 / deblock=1:-1:-1 / analyse=0x3:0x133 / me=umh / subme=10 / psy=1 / psy_rd=1.00:0.15 / mixed_ref=1 / me_range=24 / chroma_me=1 / trellis=2 / 8x8dct=1 / cqm=0 / deadzone=21,11 / fast_pskip=1 / chroma_qp_offset=-3 / threads=6 / sliced_threads=0 / nr=0 / decimate=1 / interlaced=0 / constrained_intra=0 / bframes=8 / b_pyramid=2 / b_adapt=2 / b_bias=0 / direct=3 / weightb=1 / open_gop=0 / weightp=2 / keyint=250 / keyint_min=23 / scenecut=40 / intra_refresh=0 / rc_lookahead=60 / rc=2pass / mbtree=1 / bitrate=3922 / ratetol=1.0 / qcomp=0.60 / qpmin=0 / qpmax=69 / qpstep=4 / cplxblur=20.0 / qblur=0.5 / ip_ratio=1.40 / aq=1:1.00

Audio #1
ID : 2
Format : DTS
Format/Info : Digital Theater Systems
Muxing mode : Header stripping
Codec ID : A_DTS
Duration : 1h 42mn
Bit rate mode : Constant
Bit rate : 755 Kbps
Channel(s) : 6 channels
Channel positions : Front: L C R, Side: L R, LFE
Sampling rate : 48.0 KHz
Bit depth : 24 bits
Compression mode : Lossy
Stream size : 555 MiB (12%)
Language : Japanese

Audio #2
ID : 3
Format : DTS
Format/Info : Digital Theater Systems
Muxing mode : Header stripping
Codec ID : A_DTS
Duration : 1h 42mn
Bit rate mode : Constant
Bit rate : 755 Kbps
Channel(s) : 6 channels
Channel positions : Front: L C R, Side: L R, LFE
Sampling rate : 48.0 KHz
Bit depth : 24 bits
Compression mode : Lossy
Stream size : 555 MiB (12%)
Language : Spanish

Audio #3
ID : 4
Format : AC-3
Format/Info : Audio Coding 3
Mode extension : CM (complete main)
Muxing mode : Header stripping
Codec ID : A_AC3
Duration : 1h 42mn
Bit rate mode : Constant
Bit rate : 640 Kbps
Channel(s) : 6 channels
Channel positions : Front: L C R, Side: L R, LFE
Sampling rate : 48.0 KHz
Bit depth : 16 bits
Compression mode : Lossy
Stream size : 471 MiB (11%)
Language : Catalan

Text #1
ID : 5
Format : UTF-8
Codec ID : S_TEXT/UTF8
Codec ID/Info : UTF-8 Plain Text
Language : French

Text #2
ID : 6
Format : UTF-8
Codec ID : S_TEXT/UTF8
Codec ID/Info : UTF-8 Plain Text
Language : Catalan

Text #3
ID : 7
Format : UTF-8
Codec ID : S_TEXT/UTF8
Codec ID/Info : UTF-8 Plain Text
Title : forced
Language : English

Text #4
ID : 8
Format : UTF-8
Codec ID : S_TEXT/UTF8
Codec ID/Info : UTF-8 Plain Text
Language : English

Text #5
ID : 9
Format : UTF-8
Codec ID : S_TEXT/UTF8
Codec ID/Info : UTF-8 Plain Text
Language : Spanish

Menu
00:00:00.000 : en:00:00:00.000
00:07:45.674 : en:00:07:45.674
00:16:37.997 : en:00:16:37.997
00:24:50.781 : en:00:24:50.781
00:34:02.999 : en:00:34:02.999
00:42:13.614 : en:00:42:13.614
00:50:35.199 : en:00:50:35.199
00:59:30.776 : en:00:59:30.776
01:07:19.994 : en:01:07:19.994
01:15:41.579 : en:01:15:41.579
01:25:07.519 : en:01:25:07.519
01:37:46.277 : en:01:37:46.277


Descàrrega
uploaded.to
1fichier
yandex
Bilkoff l’ha editat per darrera vegada el dia: dc. 11 des. 2013, 15:40, en total s’ha editat 2 vegades.
 
Avatar de l’usuari
itrebla
Ishinchu
Ishinchu
Entrades: 53
Membre des de: dj. 13 gen. 2011, 20:32

Re: [MU-1F] "L'espasa del foraster" aka "El samurai sense nom"

dc. 04 maig 2011, 13:38

Descarregant! Moltes gràcies!
 
Avatar de l’usuari
wachimiro
Moderadors
Moderadors
Entrades: 1684
Membre des de: dg. 19 feb. 2006, 16:53
Ubicació: China

Re: [MU-1F] "L'espasa del foraster" aka "El samurai sense nom"

dc. 04 maig 2011, 14:20

Gracies, encara que la gent no comenti es descarreguen molt els teus aports mes que els meus ;).
Si teniu cap problema per descarregar amb JDownloader feu servir aquesta versió i actualitzeu aquí la trobareu. -->>JDownloader <<--
 
Avatar de l’usuari
victorvvs
Usuari
Usuari
Entrades: 6
Membre des de: dg. 07 nov. 2010, 23:49
Contacta:

Re: [MU-1F] "L'espasa del foraster" aka "El samurai sense nom"

dg. 15 maig 2011, 13:10

Gracias por tu grandissimo aporte
 
Avatar de l’usuari
Bardock
Arashinchu
Arashinchu
Entrades: 199
Membre des de: dj. 12 nov. 2009, 16:44

Re: [MU-1F] "L'espasa del foraster" aka "El samurai sense nom"

dt. 17 maig 2011, 12:44

Brutal calitat bluray!
merci per l'aportació grandiosa
Imatge
 
Avatar de l’usuari
Bilkoff
Moderadors
Moderadors
Entrades: 779
Membre des de: dt. 05 oct. 2004, 19:22
Ubicació: Borriana
Contacta:

Re: [MU-1F] "L'espasa del foraster" aka "El samurai sense no

dt. 10 des. 2013, 23:22

 
Avatar de l’usuari
jailbreak29
Arashinchu
Arashinchu
Entrades: 89
Membre des de: dv. 11 jul. 2014, 11:18

Re: "L'espasa del foraster" aka "El samurai sense nom"

dv. 11 jul. 2014, 12:02

Gracias por el aporte
Never Give Up
 
Avatar de l’usuari
Steve Maister
Moderadors
Moderadors
Entrades: 1790
Membre des de: dc. 05 març 2008, 18:16

Re: L'espasa del foraster (aka "El samurai sense nom")

ds. 25 feb. 2017, 17:25

Una altra pel·lícula que vaig veure quan la va treure el fansub d'Animelliure i que no havia vist encara doblada. Aquesta la guardaré, que m'agrada molt. Gràcies per la release :profident:
 
Avatar de l’usuari
xagasa
Ryushinchu
Ryushinchu
Entrades: 1979
Membre des de: dl. 26 maig 2014, 10:16
Ubicació: Planeta M2

Re: L'espasa del foraster (aka "El samurai sense nom")

dc. 01 març 2017, 10:45

Caram. Molt bona aquesta peli. Fa anys la vaig veure pel K3. Doncs l'agafo per la meva colecció. Moltes gràcies. Salut. :yeah:
 
Andreuenc
Usuari
Usuari
Entrades: 20
Membre des de: dl. 04 set. 2017, 22:23

Re: L'espasa del foraster (aka "El samurai sense nom")

dc. 13 set. 2017, 22:54

Moltes gracies!!

Qui està connectat

Usuaris navegant en aquest fòrum: No hi ha cap usuari registrat i 4 visitants