Anime i manga en català

Moderadors: Steve Maister, wachimiro, Bilkoff

 
Avatar de l’usuari
Adrià
Ryushinchu
Ryushinchu
Entrades: 2431
Membre des de: dt. 24 jul. 2012, 21:11

Re: [MEGA/ONLINE] Ataque a los Titanes [Esp-Jap+SubsEsp][1080p]

dg. 27 març 2016, 11:55

Añadida la versión 1080p y 720p de la película en 8bits.

viewtopic.php?f=11&t=19485&p=338387#p338387
Instal·lador MiPony
Instal·lador JDownloader2
Instal·lador eMule
Instal·lador μTorrent 2.2.1 (recomanat)

DESCARREGAR:
JD2 obert - Clicar a CNL2 - Apareixen links al JD2 - Descarregar.
 
Avatar de l’usuari
intervención
Sushinchu
Sushinchu
Entrades: 750
Membre des de: dc. 19 juny 2013, 21:30
Ubicació: Barcelona
Contacta:

Re: [MEGA/ONLINE] Ataque a los Titanes [Esp-Jap+SubsEsp][1080p]

dg. 27 març 2016, 14:43

720p 8bits

General
Unique ID                      : 204717177755643089943006796239020295525 (0x9A03182289A7E7048AF4B5E88E990565)
Complete name                  : E:\Ataque a los Titanes - La Película Parte 1 - El arco y la flecha escarlatas [BDRip 720p h264 8bits AC3 Subs][Spanish-Japanese][Adrià] [5C6C1107].mkv
Format                         : Matroska
Format version                 : Version 4 / Version 2
File size                      : 3.33 GiB
Duration                       : 1h 58mn
Overall bit rate               : 4 016 Kbps
Encoded date                   : UTC 2016-03-26 19:28:48
Writing application            : mkvmerge v8.9.0 ('Father Daughter') 64bit
Writing library                : libebml v1.3.3 + libmatroska v1.4.4
Attachments                    : Alegreya-Regular.otf / Becker-Medium-Regular.ttf / Gipsiero_Kracxed.otf / kirsty rg.ttf / LEHN084.TTF / AGENCYB.TTF / Alegreya-Bold.otf

Video
ID                             : 1
Format                         : AVC
Format/Info                    : Advanced Video Codec
Format profile                 : High@L4.1
Format settings, CABAC         : Yes
Format settings, ReFrames      : 9 frames
Codec ID                       : V_MPEG4/ISO/AVC
Duration                       : 1h 58mn
Bit rate                       : 3 113 Kbps
Width                          : 1 280 pixels
Height                         : 720 pixels
Display aspect ratio           : 16:9
Frame rate mode                : Constant
Frame rate                     : 23.976 (24000/1001) fps
Color space                    : YUV
Chroma subsampling             : 4:2:0
Bit depth                      : 8 bits
Scan type                      : Progressive
Bits/(Pixel*Frame)             : 0.141
Stream size                    : 2.58 GiB (78%)
Writing library                : x264 core 148 r2665 a01e339
Encoding settings              : cabac=1 / ref=9 / deblock=1:-3:-3 / analyse=0x3:0x113 / me=umh / subme=10 / psy=1 / psy_rd=1.00:0.00 / mixed_ref=1 / me_range=40 / chroma_me=1 / trellis=2 / 8x8dct=1 / cqm=0 / deadzone=21,11 / fast_pskip=0 / chroma_qp_offset=-3 / threads=18 / lookahead_threads=3 / sliced_threads=0 / nr=0 / decimate=0 / interlaced=0 / bluray_compat=0 / constrained_intra=0 / bframes=7 / b_pyramid=2 / b_adapt=2 / b_bias=0 / direct=1 / weightb=1 / open_gop=0 / weightp=2 / keyint=240 / keyint_min=23 / scenecut=40 / intra_refresh=0 / rc_lookahead=40 / rc=crf / mbtree=0 / crf=16.0 / qcomp=0.60 / qpmin=0 / qpmax=69 / qpstep=4 / vbv_maxrate=50000 / vbv_bufsize=62500 / crf_max=0.0 / nal_hrd=none / filler=0 / ip_ratio=1.30 / pb_ratio=1.30 / aq=2:0.80
Language                       : Japanese
Default                        : Yes
Forced                         : No

Audio #1
ID                             : 2
Format                         : AC-3
Format/Info                    : Audio Coding 3
Mode extension                 : CM (complete main)
Format settings, Endianness    : Big
Codec ID                       : A_AC3
Duration                       : 1h 58mn
Bit rate mode                  : Constant
Bit rate                       : 448 Kbps
Channel(s)                     : 6 channels
Channel positions              : Front: L C R, Side: L R, LFE
Sampling rate                  : 48.0 KHz
Frame rate                     : 31.250 fps (1536 spf)
Compression mode               : Lossy
Stream size                    : 380 MiB (11%)
Title                          : Ataque a los titanes - La película Parte 1: El arco y la flecha escarlata
Language                       : Spanish
Default                        : Yes
Forced                         : No

Audio #2
ID                             : 3
Format                         : AC-3
Format/Info                    : Audio Coding 3
Mode extension                 : CM (complete main)
Format settings, Endianness    : Big
Codec ID                       : A_AC3
Duration                       : 1h 58mn
Bit rate mode                  : Constant
Bit rate                       : 448 Kbps
Channel(s)                     : 6 channels
Channel positions              : Front: L C R, Side: L R, LFE
Sampling rate                  : 48.0 KHz
Frame rate                     : 31.250 fps (1536 spf)
Compression mode               : Lossy
Stream size                    : 380 MiB (11%)
Title                          : Gekijō-ban Shingeki no Kyojin [Zenpen] -Guren no Yumiya- (劇場版 進撃の巨人 [前編] ―紅蓮の弓矢―)
Language                       : Japanese
Default                        : No
Forced                         : No

Text #1
ID                             : 4
Format                         : ASS
Codec ID                       : S_TEXT/ASS
Codec ID/Info                  : Advanced Sub Station Alpha
Duration                       : 1h 58mn
Bit rate                       : 366 bps
Count of elements              : 2017
Compression mode               : Lossless
Stream size                    : 318 KiB (0%)
Title                          : Español Forzados
Language                       : Spanish
Default                        : Yes
Forced                         : Yes

Text #2
ID                             : 5
Format                         : PGS
Muxing mode                    : zlib
Codec ID                       : S_HDMV/PGS
Codec ID/Info                  : Picture based subtitle format used on BDs/HD-DVDs
Duration                       : 1h 58mn
Bit rate                       : 3 376 bps
Count of elements              : 2738
Stream size                    : 2.85 MiB (0%)
Title                          : Español Completos [Corregidos]
Language                       : Spanish
Default                        : No
Forced                         : No

Menu
00:00:00.000                   : ar:
00:03:07.020                   : ar:
00:03:17.030                   : ar:
00:25:14.638                   : ar:
00:46:16.816                   : ar:
01:52:39.044                   : ar:
01:57:57.654                   : ar:



1080p 8bits

General
Unique ID                      : 192780781032484518461361088854855358094 (0x91083A56F3B5A498BE5F734A08D5968E)
Complete name                  : E:\Ataque a los Titanes - La Película Parte 1 - El arco y la flecha escarlatas [BDRip 1080p h264 8bits AC3-FLAC Subs][Spanish-Japanese][Adrià] [141E0DB8].mkv
Format                         : Matroska
Format version                 : Version 4 / Version 2
File size                      : 11.7 GiB
Duration                       : 1h 58mn
Overall bit rate mode          : Variable
Overall bit rate               : 14.1 Mbps
Encoded date                   : UTC 2016-03-26 19:31:01
Writing application            : mkvmerge v8.9.0 ('Father Daughter') 64bit
Writing library                : libebml v1.3.3 + libmatroska v1.4.4
Attachments                    : Alegreya-Regular.otf / Becker-Medium-Regular.ttf / Gipsiero_Kracxed.otf / kirsty rg.ttf / LEHN084.TTF / AGENCYB.TTF / Alegreya-Bold.otf

Video
ID                             : 1
Format                         : AVC
Format/Info                    : Advanced Video Codec
Format profile                 : High@L4.1
Format settings, CABAC         : Yes
Format settings, ReFrames      : 4 frames
Codec ID                       : V_MPEG4/ISO/AVC
Duration                       : 1h 58mn
Bit rate                       : 10.2 Mbps
Width                          : 1 920 pixels
Height                         : 1 080 pixels
Display aspect ratio           : 16:9
Frame rate mode                : Constant
Frame rate                     : 23.976 (24000/1001) fps
Color space                    : YUV
Chroma subsampling             : 4:2:0
Bit depth                      : 8 bits
Scan type                      : Progressive
Bits/(Pixel*Frame)             : 0.205
Stream size                    : 8.44 GiB (72%)
Writing library                : x264 core 148 r2665 a01e339
Encoding settings              : cabac=1 / ref=4 / deblock=1:-3:-3 / analyse=0x3:0x113 / me=umh / subme=10 / psy=1 / psy_rd=1.00:0.00 / mixed_ref=1 / me_range=40 / chroma_me=1 / trellis=2 / 8x8dct=1 / cqm=0 / deadzone=21,11 / fast_pskip=0 / chroma_qp_offset=-3 / threads=18 / lookahead_threads=3 / sliced_threads=0 / nr=0 / decimate=0 / interlaced=0 / bluray_compat=0 / constrained_intra=0 / bframes=7 / b_pyramid=2 / b_adapt=2 / b_bias=0 / direct=1 / weightb=1 / open_gop=0 / weightp=2 / keyint=240 / keyint_min=23 / scenecut=40 / intra_refresh=0 / rc_lookahead=40 / rc=crf / mbtree=0 / crf=16.0 / qcomp=0.60 / qpmin=0 / qpmax=69 / qpstep=4 / vbv_maxrate=50000 / vbv_bufsize=62500 / crf_max=0.0 / nal_hrd=none / filler=0 / ip_ratio=1.30 / pb_ratio=1.30 / aq=2:0.80
Language                       : Japanese
Default                        : Yes
Forced                         : No

Audio #1
ID                             : 2
Format                         : AC-3
Format/Info                    : Audio Coding 3
Mode extension                 : CM (complete main)
Format settings, Endianness    : Big
Codec ID                       : A_AC3
Duration                       : 1h 58mn
Bit rate mode                  : Constant
Bit rate                       : 448 Kbps
Channel(s)                     : 6 channels
Channel positions              : Front: L C R, Side: L R, LFE
Sampling rate                  : 48.0 KHz
Frame rate                     : 31.250 fps (1536 spf)
Compression mode               : Lossy
Stream size                    : 380 MiB (3%)
Title                          : Ataque a los titanes - La película Parte 1: El arco y la flecha escarlata
Language                       : Spanish
Default                        : Yes
Forced                         : No

Audio #2
ID                             : 3
Format                         : FLAC
Format/Info                    : Free Lossless Audio Codec
Codec ID                       : A_FLAC
Duration                       : 1h 58mn
Bit rate mode                  : Variable
Bit rate                       : 3 470 Kbps
Channel(s)                     : 6 channels
Channel positions              : Front: L C R, Side: L R, LFE
Sampling rate                  : 48.0 KHz
Frame rate                     : 11.719 fps (4096 spf)
Bit depth                      : 24 bits
Stream size                    : 2.88 GiB (25%)
Title                          : Gekijō-ban Shingeki no Kyojin [Zenpen] -Guren no Yumiya- (劇場版 進撃の巨人 [前編] ―紅蓮の弓矢―)
Writing library                : libFLAC 1.2.1 (UTC 2007-09-17)
Language                       : Japanese
Default                        : No
Forced                         : No

Text #1
ID                             : 4
Format                         : ASS
Codec ID                       : S_TEXT/ASS
Codec ID/Info                  : Advanced Sub Station Alpha
Duration                       : 1h 58mn
Bit rate                       : 381 bps
Count of elements              : 2017
Compression mode               : Lossless
Stream size                    : 331 KiB (0%)
Title                          : Español Forzados
Language                       : Spanish
Default                        : Yes
Forced                         : Yes

Text #2
ID                             : 5
Format                         : VobSub
Muxing mode                    : zlib
Codec ID                       : S_VOBSUB
Codec ID/Info                  : Picture based subtitle format used on DVDs
Duration                       : 1h 58mn
Bit rate                       : 1 593 bps
Count of elements              : 1370
Stream size                    : 1.35 MiB (0%)
Language                       : Spanish
Default                        : No
Forced                         : No

Text #3
ID                             : 6
Format                         : PGS
Muxing mode                    : zlib
Codec ID                       : S_HDMV/PGS
Codec ID/Info                  : Picture based subtitle format used on BDs/HD-DVDs
Duration                       : 1h 58mn
Bit rate                       : 5 027 bps
Count of elements              : 2740
Stream size                    : 4.25 MiB (0%)
Title                          : Español Completos [Corregidos]
Language                       : Spanish
Default                        : No
Forced                         : No

Menu
00:00:00.000                   : ar:
00:03:07.020                   : ar:
00:03:17.030                   : ar:
00:25:14.638                   : ar:
00:46:16.816                   : ar:
01:52:39.044                   : ar:
01:57:57.654                   : ar:
Imatge
Lluna Plena no Fansub: Manga i Anime en Català!
Estem reclutant! Uneix-te clicant aquí!!
 
Avatar de l’usuari
Redyck
Ushinchu
Ushinchu
Entrades: 1206
Membre des de: dc. 07 set. 2005, 01:15

Re: [MEGA/ONLINE] Ataque a los Titanes [Esp-Jap+SubsEsp][1080p]

dj. 11 ago. 2016, 19:08

Repujo el Post per preguntar sobre la versió de la Parte 2 de la pel.lícula. Com ho teniu? Crec que ja fa temps que va sortir en BD, no?
Gracies.
 
Avatar de l’usuari
fabrebatalla18
Chishinchu
Chishinchu
Entrades: 3256
Membre des de: ds. 11 juny 2011, 17:30

Re: [MEGA/ONLINE] Ataque a los Titanes [Esp-Jap+SubsEsp][1080p]

dj. 11 ago. 2016, 19:10

Redyck ha escrit:
Repujo el Post per preguntar sobre la versió de la Parte 2 de la pel.lícula. Com ho teniu? Crec que ja fa temps que va sortir en BD, no?
Gracies.

Juraria que el problema es que ningu la va pujar en BDrip a internet... jo crec que va tenir poques vendes ja que es casi igual que l'anime pero resumintlo... i amb 3 o 4 escenes mes.
 
Avatar de l’usuari
intervención
Sushinchu
Sushinchu
Entrades: 750
Membre des de: dc. 19 juny 2013, 21:30
Ubicació: Barcelona
Contacta:

Re: [MEGA/ONLINE] Ataque a los Titanes [Esp-Jap+SubsEsp][1080p]

dj. 11 ago. 2016, 19:20

Redyck ha escrit:
Repujo el Post per preguntar sobre la versió de la Parte 2 de la pel.lícula. Com ho teniu? Crec que ja fa temps que va sortir en BD, no?
Gracies.


No trobem el BDESP a internet... A mi no m'agrada prou per comprar-me les pelis ara per ara, ho sento.
Imatge
Lluna Plena no Fansub: Manga i Anime en Català!
Estem reclutant! Uneix-te clicant aquí!!
 
Avatar de l’usuari
Adrià
Ryushinchu
Ryushinchu
Entrades: 2431
Membre des de: dt. 24 jul. 2012, 21:11

Re: [MEGA/ONLINE] Ataque a los Titanes [Esp-Jap+SubsEsp][1080p]

dj. 11 ago. 2016, 19:48

L'àudio que vaig utilitzar per la peli 1 era una persona que se'l va comprar (segurament pensant-se que no era un recopilatori xD) i era del DVD, segurament ja editat... A mi m'agrada la sèrie però no em compraré el DVD si és un recopilatori (com molta gent pensa).
Instal·lador MiPony
Instal·lador JDownloader2
Instal·lador eMule
Instal·lador μTorrent 2.2.1 (recomanat)

DESCARREGAR:
JD2 obert - Clicar a CNL2 - Apareixen links al JD2 - Descarregar.
 
Avatar de l’usuari
xagasa
Chishinchu
Chishinchu
Entrades: 3396
Membre des de: dl. 26 maig 2014, 10:16
Ubicació: Planeta M2

Re: [MEGA/ONLINE] Ataque a los Titanes [Esp-Jap+SubsEsp][1080p]

dj. 11 ago. 2016, 20:24

On les podeu trobar per dd es a descargasmix y en HD 1080p
 
Avatar de l’usuari
fabrebatalla18
Chishinchu
Chishinchu
Entrades: 3256
Membre des de: ds. 11 juny 2011, 17:30

Re: [MEGA/ONLINE] Ataque a los Titanes [Esp-Jap+SubsEsp][1080p]

dj. 11 ago. 2016, 20:30

xagasa ha escrit:
On les podeu trobar per dd es a descargasmix y en HD 1080p

Imatge

No te massa sentit fer una release amb un audio 2.0 quan precisament una de les principals millores d'aquestes "pelis" respecte a l'anime es l'audio 5.1... a mes que diria que deu ser un audio online del yomvi ja que justament fa pocs dies van posar aquestes pelis a yomvi.

http://misiontokyo.com/noticias/las-pel ... a-en-yomvi
 
TheRock4
Arashinchu
Arashinchu
Entrades: 114
Membre des de: dj. 19 des. 2013, 15:50

Re: [MEGA/ONLINE] Ataque a los Titanes [Esp-Jap+SubsEsp][1080p]

dc. 07 des. 2016, 18:38

A salido información sobre la segunda temporada, dicen que su estreno será en abril.
Esta vez espero que sea verdad. jejejejejeje
 
Avatar de l’usuari
intervención
Sushinchu
Sushinchu
Entrades: 750
Membre des de: dc. 19 juny 2013, 21:30
Ubicació: Barcelona
Contacta:

Re: [MEGA/ONLINE] Ataque a los Titanes [Esp-Jap+SubsEsp][1080p]

dc. 07 des. 2016, 18:43

Sí, parece oficial.
Imatge
Lluna Plena no Fansub: Manga i Anime en Català!
Estem reclutant! Uneix-te clicant aquí!!
 
TheRock4
Arashinchu
Arashinchu
Entrades: 114
Membre des de: dj. 19 des. 2013, 15:50

Re: [MEGA/ONLINE] Ataque a los Titanes [Esp-Jap+SubsEsp][1080p]

dl. 10 abr. 2017, 18:21

Alguien sabe si habrá doblaje de la segunda temporada ?
 
Avatar de l’usuari
Javi Ciffer
Sanshinchu
Sanshinchu
Entrades: 252
Membre des de: dc. 17 oct. 2012, 17:07
Contacta:

Re: [MEGA/ONLINE] Ataque a los Titanes [Esp-Jap+SubsEsp][1080p]

dl. 10 abr. 2017, 18:30

TheRock4 ha escrit:
Alguien sabe si habrá doblaje de la segunda temporada ?

Seguro al 99,99% Esta serie hará de Oro a Selecta xD
Imatge
 
Avatar de l’usuari
fabrebatalla18
Chishinchu
Chishinchu
Entrades: 3256
Membre des de: ds. 11 juny 2011, 17:30

Re: [MEGA/ONLINE] Ataque a los Titanes [Esp-Jap+SubsEsp][1080p]

dl. 10 abr. 2017, 18:35

Como se dice, es muy probable que Selecta licencie la segunda temporada, pero no lo ha confirmado aun... aunque habiendo licenciado la primera y el spin off ese que salio del instituto y haibendo sido un exito (o eso parece) pues no creo que se lo piensen mucho para licenciar la segunda temporada en cuanto este disponible para licenciar.
 
TheRock4
Arashinchu
Arashinchu
Entrades: 114
Membre des de: dj. 19 des. 2013, 15:50

Re: [MEGA/ONLINE] Ataque a los Titanes [Esp-Jap+SubsEsp][1080p]

dl. 10 abr. 2017, 19:07

Vale, eso quiere decir que para la semana que viene, ni el mes que viene va a estar no ? jejejeje
 
Avatar de l’usuari
Frydivx
Sanshinchu
Sanshinchu
Entrades: 303
Membre des de: dc. 23 maig 2012, 17:59

Re: [MEGA/ONLINE] Ataque a los Titanes [Esp-Jap+SubsEsp][1080p]

dt. 11 abr. 2017, 12:17

He vist que Selecta ha anunciat una serie de llicències que anirà descobrint començant per avui a partir de les 22:00 i durant tot la setmana.
El més segur es que una de les llicències que anunciïn serà la 2a temporada d'aquest anime.
Estigueu atents a les xarxes socials de Selecta Visión.

Salut!

Qui està connectat

Usuaris navegant en aquest fòrum: Google Feedfetcher i 2 visitants