Anime i manga en català

Moderadors: Steve Maister, wachimiro, Bilkoff

 
Avatar de l’usuari
HoT.FuN
Sushinchu
Sushinchu
Entrades: 459
Membre des de: ds. 28 set. 2013, 01:08
Ubicació: Institut Shohoku

[MEGA] PORCO ROSSO [BDRIP 1080p] [GHIBLI]

dj. 26 des. 2013, 02:10

Imatge
Título original: Kurenai no Buta (Porco Rosso)
Año: 1992
Duración: 94 min.
País: Japón
Director: Hayao Miyazaki
Guión: Hayao Miyazaki
Música: Jô Hisaishi
Fotografía: Animation
Reparto: Animation
Productora: Studio Ghibli / Japan Airlines / Nibariki / Nippon Television Network Corporation (NTV) / TNNG / Toho Company / Tokuma Shoten
Género: Animación. Fantástico. Aventuras | Años 30. Aviones. Piratas

Web Oficial: http://www.nausicaa.net/miyazaki/porco/" onclick="window.open(this.href);return false;

Sinopsis: Periodo de entreguerras. Porco es un cerdo aviador que frustra todos los actos de piratería perpetrados por los piratas aéreos del Adriático. Éstos, decididos a acabar con el valiente y hábil aviador, se ponen de acuerdo para contratar a un aventurero americano cuya misión será eliminarlo.


Premios
1992: Mainichi Film Concours: Mejor película animada, mejor BSO
1993: Festival de Annecy: Mejor largometraje

Mediainfo:
Spoiler: mostra
Complete name : Porco Rosso [Multi Audio+Sub][1080p][1992].mkv
Format : Matroska
Format version : Version 4 / Version 2
File size : 2.25 GiB
Duration : 1h 33mn
Overall bit rate : 3 458 Kbps
Movie name : Kurenai no Buta (Porco Rosso) [1992] By HoT.FuN
Encoded date : UTC 2013-12-14 20:50:29
Writing application : mkvmerge v6.6.0 ('The Edge Of The In Between') built on Dec 1 2013 17:55:00
Writing library : libebml v1.3.0 + libmatroska v1.4.1
Attachment : Yes / Yes / Yes / Yes / Yes / Yes / Yes

Video
ID : 1
Format : AVC
Format/Info : Advanced Video Codec
Format profile : High 10@L5.1
Format settings, CABAC : Yes
Format settings, ReFrames : 16 frames
Codec ID : V_MPEG4/ISO/AVC
Duration : 1h 33mn
Bit rate : 2 301 Kbps
Width : 1 920 pixels
Height : 1 040 pixels
Display aspect ratio : 16:9
Original display aspect ratio : 1.85:1
Frame rate mode : Constant
Frame rate : 23.976 fps
Color space : YUV
Chroma subsampling : 4:2:0
Bit depth : 10 bits
Scan type : Progressive
Bits/(Pixel*Frame) : 0.048
Stream size : 1.50 GiB (67%)
Writing library : x264 core 133 r2334kMod AnimeHD
Encoding settings : cabac=1 / ref=16 / deblock=1:-2:-1 / analyse=0x3:0x133 / me=tesa / subme=10 / psy=1 / fade_compensate=0.00 / psy_rd=0.40:0.00 / mixed_ref=1 / me_range=48 / chroma_me=1 / trellis=2 / 8x8dct=1 / cqm=0 / deadzone=21,11 / fast_pskip=0 / chroma_qp_offset=-2 / threads=18 / lookahead_threads=4 / sliced_threads=0 / nr=0 / decimate=1 / interlaced=0 / bluray_compat=0 / constrained_intra=0 / bframes=16 / b_pyramid=2 / b_adapt=2 / b_bias=0 / direct=3 / weightb=1 / open_gop=0 / weightp=2 / keyint=1400 / keyint_min=23 / scenecut=40 / intra_refresh=0 / rc_lookahead=40 / rc=crf / mbtree=1 / crf=20.2300 / qcomp=0.97 / qpmin=0 / qpmax=81 / qpstep=4 / ip_ratio=1.40 / aq=1:0.60
Default : Yes
Forced : No
Color primaries : BT.601 PAL
Transfer characteristics : BT.470 System B, BT.470 System G
Matrix coefficients : BT.601

Audio #1
ID : 2
Format : AC-3
Format/Info : Audio Coding 3
Mode extension : CM (complete main)
Format settings, Endianness : Big
Codec ID : A_AC3
Duration : 1h 33mn
Bit rate mode : Constant
Bit rate : 320 Kbps
Channel count : 2 channels
Channel positions : Front: L R
Sampling rate : 48.0 KHz
Bit depth : 16 bits
Compression mode : Lossy
Stream size : 214 MiB (9%)
Title : Castellano AC3 320 Kbps 2 Channels By HoT.FuN
Language : Spanish
Default : Yes
Forced : No

Audio #2
ID : 3
Format : AC-3
Format/Info : Audio Coding 3
Mode extension : CM (complete main)
Format settings, Endianness : Big
Codec ID : A_AC3
Duration : 1h 33mn
Bit rate mode : Constant
Bit rate : 128 Kbps
Channel count : 2 channels
Channel positions : Front: L R
Sampling rate : 48.0 KHz
Bit depth : 16 bits
Compression mode : Lossy
Stream size : 85.4 MiB (4%)
Title : Català AC3 128 Kbps 2 Channels
Language : Catalan
Default : No
Forced : No

Audio #3
ID : 4
Format : AC-3
Format/Info : Audio Coding 3
Mode extension : CM (complete main)
Format settings, Endianness : Big
Codec ID : A_AC3
Duration : 1h 33mn
Bit rate mode : Constant
Bit rate : 128 Kbps
Channel count : 2 channels
Channel positions : Front: L R
Sampling rate : 48.0 KHz
Bit depth : 16 bits
Compression mode : Lossy
Stream size : 85.4 MiB (4%)
Title : Euskera AC3 128 Kbps 2 Channels
Language : Basque
Default : No
Forced : No

Audio #4
ID : 5
Format : AC-3
Format/Info : Audio Coding 3
Format profile : Dolby Digital
Mode extension : CM (complete main)
Format settings, Endianness : Big
Codec ID : A_AC3
Duration : 1h 33mn
Bit rate mode : Constant
Bit rate : 192 Kbps
Channel count : 2 channels
Channel positions : Front: L R
Sampling rate : 48.0 KHz
Bit depth : 16 bits
Compression mode : Lossy
Stream size : 128 MiB (6%)
Title : English AC3 192 Kbps 2 Channels
Language : English
Default : No
Forced : No

Audio #5
ID : 6
Format : AC-3
Format/Info : Audio Coding 3
Mode extension : CM (complete main)
Format settings, Endianness : Big
Codec ID : A_AC3
Duration : 1h 33mn
Bit rate mode : Constant
Bit rate : 320 Kbps
Channel count : 2 channels
Channel positions : Front: L R
Sampling rate : 48.0 KHz
Bit depth : 16 bits
Compression mode : Lossy
Stream size : 214 MiB (9%)
Title : Japonés AC3 320 Kbps 6 Channels
Language : Japanese
Default : No
Forced : No

Text #1
ID : 7
Format : ASS
Codec ID : S_TEXT/ASS
Codec ID/Info : Advanced Sub Station Alpha
Compression mode : Lossless
Title : Castellano Forzados ASS By HoT.FuN
Language : Spanish
Default : Yes
Forced : Yes

Text #2
ID : 8
Format : ASS
Codec ID : S_TEXT/ASS
Codec ID/Info : Advanced Sub Station Alpha
Compression mode : Lossless
Title : Català Forçats ASS By HoT.FuN
Language : Catalan
Default : No
Forced : No

Text #3
ID : 9
Format : ASS
Codec ID : S_TEXT/ASS
Codec ID/Info : Advanced Sub Station Alpha
Compression mode : Lossless
Title : Español Neutro Completos ASS By HoT.FuN
Language : Spanish
Default : No
Forced : No


Información Básica
Fuente de vídeo: BD-Rip
Contenedor: mkv
Códec: x264 10 Bits
Tamaño: 2.25 GB
Tasa de Bits total: 3 458 Kbps
Resolución: 1920x1040
Audio 1: Castellano AC3 2.0 320 kbps 2 Channels
Audio 2: Català AC3 2.0 128 Kbps 2 Channels
Audio 3: Euskera AC3 2.0 128 Kbps 2 Channels
Audio 4: English AC3 2.0 192 Kbps 2 Channels
Audio 5: Japonés AC3 2.0 320 Kbps 2 Channels
Montador, Sincronizador y Uploader: HoT.FuN
Subtitulos: Castellano y Catalán Forzados y Español Neutro Completos Todos ASS
Nota:
Spoiler: mostra
La imagen original es de 1040 yo con el mkvmerge la he estirado para completar a 1080p ya que es tan mínimo que si no lo dijesen los archivos como Mediainfo ni se notaria, quien quiera poner su aspect ratio original que use el mkvmerge seleccione la pista de vídeo, luego opciones específicas de formato y ponga altura/anchura de formato y cambie el 1080 por 1040 y volverá a su original. ^^



Capturas
Spoiler: mostra
Imatge
Imatge
Imatge


LINK DE DESCARGA 10 BITS
Imatge
↓↓↓
LINKS DE DESCARGA 10 BITS, DISFRUTAD
MIRROR 1
Imatge
MIRROR 2
Imatge
Nota: Los 2 Links son el mismo pero con distinta web encryptadora ^^

TUTORIAL PARA LA DESCARGA
Primero de todo tener el JDowloader (V2) o Mipony abierto, y cuando estés en la página ncrypt.in o Subedlc.com, tendrás que resolver un captcha (probablemente un puzzle) y después, hacer click en el botón CNL2 o Clic'N'Load
Si hacéis click en Permitir los links de MEGA se agregarán automáticamente a JDowloader (También podéis usar Mipony)

_________________________________________________________________________________________________________________________________________________

VERSIÓN 8 BITS

Mediainfo:
Spoiler: mostra
Complete name : Porco Rosso [Multi Audio+Sub][8 Bits 1080p][1992].mkv
Format : Matroska
Format version : Version 4 / Version 2
File size : 2.21 GiB
Duration : 1h 33mn
Overall bit rate : 3 392 Kbps
Movie name : Kurenai no Buta (Porco Rosso) [1992] By HoT.FuN
Encoded date : UTC 2014-01-09 14:17:56
Writing application : mkvmerge v6.6.0 ('The Edge Of The In Between') built on Dec 1 2013 17:55:00
Writing library : libebml v1.3.0 + libmatroska v1.4.1
Attachment : Yes / Yes / Yes / Yes / Yes / Yes / Yes

Video
ID : 1
Format : AVC
Format/Info : Advanced Video Codec
Format profile : High@L4.0
Format settings, CABAC : Yes
Format settings, ReFrames : 4 frames
Codec ID : V_MPEG4/ISO/AVC
Duration : 1h 33mn
Bit rate : 2 300 Kbps
Width : 1 920 pixels
Height : 1 040 pixels
Display aspect ratio : 16:9
Original display aspect ratio : 1.85:1
Frame rate mode : Constant
Frame rate : 23.976 fps
Color space : YUV
Chroma subsampling : 4:2:0
Bit depth : 8 bits
Scan type : Progressive
Bits/(Pixel*Frame) : 0.048
Stream size : 1.46 GiB (66%)
Writing library : x264 core 140 r2377 1ca7bb9
Encoding settings : cabac=1 / ref=4 / deblock=1:0:0 / analyse=0x3:0x113 / me=umh / subme=8 / psy=1 / psy_rd=1.00:0.00 / mixed_ref=1 / me_range=16 / chroma_me=1 / trellis=1 / 8x8dct=1 / cqm=0 / deadzone=21,11 / fast_pskip=1 / chroma_qp_offset=-2 / threads=3 / lookahead_threads=1 / sliced_threads=0 / nr=0 / decimate=1 / interlaced=0 / bluray_compat=0 / constrained_intra=0 / bframes=3 / b_pyramid=2 / b_adapt=2 / b_bias=0 / direct=3 / weightb=1 / open_gop=0 / weightp=2 / keyint=240 / keyint_min=23 / scenecut=40 / intra_refresh=0 / rc_lookahead=50 / rc=2pass / mbtree=1 / bitrate=2300 / ratetol=1.0 / qcomp=0.60 / qpmin=0 / qpmax=69 / qpstep=4 / cplxblur=20.0 / qblur=0.5 / vbv_maxrate=25000 / vbv_bufsize=31250 / nal_hrd=none / filler=0 / ip_ratio=1.40 / aq=1:1.00
Language : English
Default : Yes
Forced : No

Audio #1
ID : 2
Format : AC-3
Format/Info : Audio Coding 3
Mode extension : CM (complete main)
Format settings, Endianness : Big
Codec ID : A_AC3
Duration : 1h 33mn
Bit rate mode : Constant
Bit rate : 320 Kbps
Channel count : 2 channels
Channel positions : Front: L R
Sampling rate : 48.0 KHz
Bit depth : 16 bits
Compression mode : Lossy
Stream size : 214 MiB (9%)
Title : Castellano AC3 320 Kbps 2 Channels By HoT.FuN
Language : Spanish
Default : Yes
Forced : No

Audio #2
ID : 3
Format : AC-3
Format/Info : Audio Coding 3
Mode extension : CM (complete main)
Format settings, Endianness : Big
Codec ID : A_AC3
Duration : 1h 33mn
Bit rate mode : Constant
Bit rate : 128 Kbps
Channel count : 2 channels
Channel positions : Front: L R
Sampling rate : 48.0 KHz
Bit depth : 16 bits
Compression mode : Lossy
Stream size : 85.4 MiB (4%)
Title : Català AC3 128 Kbps 2 Channels
Language : Catalan
Default : No
Forced : No

Audio #3
ID : 4
Format : AC-3
Format/Info : Audio Coding 3
Mode extension : CM (complete main)
Format settings, Endianness : Big
Codec ID : A_AC3
Duration : 1h 33mn
Bit rate mode : Constant
Bit rate : 128 Kbps
Channel count : 2 channels
Channel positions : Front: L R
Sampling rate : 48.0 KHz
Bit depth : 16 bits
Compression mode : Lossy
Stream size : 85.4 MiB (4%)
Title : Euskera AC3 128 Kbps 2 Channels
Language : Basque
Default : No
Forced : No

Audio #4
ID : 5
Format : AC-3
Format/Info : Audio Coding 3
Format profile : Dolby Digital
Mode extension : CM (complete main)
Format settings, Endianness : Big
Codec ID : A_AC3
Duration : 1h 33mn
Bit rate mode : Constant
Bit rate : 192 Kbps
Channel count : 2 channels
Channel positions : Front: L R
Sampling rate : 48.0 KHz
Bit depth : 16 bits
Compression mode : Lossy
Stream size : 128 MiB (6%)
Title : English AC3 192 Kbps 2 Channels
Language : English
Default : No
Forced : No

Audio #5
ID : 6
Format : AC-3
Format/Info : Audio Coding 3
Mode extension : CM (complete main)
Format settings, Endianness : Big
Codec ID : A_AC3
Duration : 1h 33mn
Bit rate mode : Constant
Bit rate : 320 Kbps
Channel count : 2 channels
Channel positions : Front: L R
Sampling rate : 48.0 KHz
Bit depth : 16 bits
Compression mode : Lossy
Stream size : 214 MiB (9%)
Title : Japonés AC3 320 Kbps 6 Channels
Language : Japanese
Default : No
Forced : No

Text #1
ID : 7
Format : ASS
Codec ID : S_TEXT/ASS
Codec ID/Info : Advanced Sub Station Alpha
Compression mode : Lossless
Title : Castellano Forzados ASS By HoT.FuN
Language : Spanish
Default : Yes
Forced : Yes

Text #2
ID : 8
Format : ASS
Codec ID : S_TEXT/ASS
Codec ID/Info : Advanced Sub Station Alpha
Compression mode : Lossless
Title : Català Forçats ASS By HoT.FuN
Language : Catalan
Default : No
Forced : No

Text #3
ID : 9
Format : ASS
Codec ID : S_TEXT/ASS
Codec ID/Info : Advanced Sub Station Alpha
Compression mode : Lossless
Title : Español Neutro Completos ASS By HoT.FuN
Language : Spanish
Default : No
Forced : No


Información Básica
Fuente de vídeo: BD-Rip
Contenedor: mkv
Códec: x264 8 Bits
Tamaño: 2.21 GB
Tasa de Bits total: 3 392 Kbps
Resolución: 1920x1040
Audio 1: Castellano AC3 2.0 320 kbps 2 Channels
Audio 2: Català AC3 2.0 128 Kbps 2 Channels
Audio 3: Euskera AC3 2.0 128 Kbps 2 Channels
Audio 4: Inglés AC3 2.0 192 Kbps 2 Channels
Audio 5: Japonés AC3 2.0 320 Kbps 2 Channels
Encoder, Montador, Sincronizador y Uploader: HoT.FuN
Subtitulos:
Castellano y Catalán Forzados
Español Neutro Completos Todos ASS
Nota:
Spoiler: mostra
La imagen original es de 1040 yo con el mkvmerge la he estirado para completar a 1080p ya que es tan mínimo que si no lo dijesen los archivos como Mediainfo ni se notaria, quien quiera poner su aspect ratio original que use el mkvmerge seleccione la pista de vídeo, luego opciones específicas de formato y ponga altura/anchura de formato y cambie el 1080 por 1040 y volverá a su original. ^^



Capturas
Spoiler: mostra
Imatge
Imatge
Imatge


LINK DE DESCARGA 8 BITS
Imatge
↓↓↓
LINKS DE DESCARGA 8 BITS, DISFRUTAD
MIRROR 1
Imatge
MIRROR 2
Imatge
Nota: Los 2 Links son el mismo pero con distinta web encryptadora ^^

TUTORIAL PARA LA DESCARGA
Primero de todo tener el JDowloader (V2) o Mipony abierto, y cuando estés en la página ncrypt.in o Subedlc.com, tendrás que resolver un captcha (probablemente un puzzle) y después, hacer click en el botón CNL2 o Clic'N'Load
Si hacéis click en Permitir los links de MEGA se agregarán automáticamente a JDowloader (También podéis usar Mipony)


Para comprobar si la película se ha descargado bien podéis usar este programa RapidCRC. Usa los números que pongo en el nombre de la película para decir si se ha bajado correctamente o no ^^
HoT.FuN l’ha editat per darrera vegada el dia: dt. 08 ago. 2017, 21:58, en total s’ha editat 22 vegades.
ImatgeImatge
Imatge
 
Avatar de l’usuari
AssasinBoy
Sanshinchu
Sanshinchu
Entrades: 211
Membre des de: dc. 18 jul. 2012, 08:09
Ubicació: En el coño de Bernarda.

Re: [MEGA] PORCO ROSSO [1080p][Multi Audio+Subs]

dj. 26 des. 2013, 02:57

D'on ho treus tot aixo? jajaja
Imatge
 
Avatar de l’usuari
HoT.FuN
Sushinchu
Sushinchu
Entrades: 459
Membre des de: ds. 28 set. 2013, 01:08
Ubicació: Institut Shohoku

Re: [MEGA] PORCO ROSSO [1080p][Multi Audio+Subs]

dj. 26 des. 2013, 03:05

Del Japó :D :lol: :xiulant: :juas: :yeah:
HoT.FuN l’ha editat per darrera vegada el dia: dl. 24 feb. 2014, 17:09, en total s’ha editat 1 vegada.
ImatgeImatge
Imatge
 
Avatar de l’usuari
AssasinBoy
Sanshinchu
Sanshinchu
Entrades: 211
Membre des de: dc. 18 jul. 2012, 08:09
Ubicació: En el coño de Bernarda.

Re: [MEGA] PORCO ROSSO [1080p][Multi Audio+Subs]

dj. 26 des. 2013, 03:18

HoT.FuN ha escrit:
AssasinBoy ha escrit:
D'on ho treus tot aixo? jajaja

Del Japó :D :lol: :xiulant: :juas: :yeah:

Visca :excl: Un bot! :bleh:
Imatge
 
Avatar de l’usuari
HoT.FuN
Sushinchu
Sushinchu
Entrades: 459
Membre des de: ds. 28 set. 2013, 01:08
Ubicació: Institut Shohoku

Re: [MEGA] PORCO ROSSO [1080p][Multi Audio+Subs]

dj. 26 des. 2013, 03:24

AssasinBoy ha escrit:
D'on ho treus tot aixo? jajaja

xD Doncs u trec d'internet.. de diferents llocs i desprès u munto :D y els subs els trec d'altres ASS o SRT els miro intento corretgir errors o faltes, cambio paraules per algunes altres ( ja que de vegades estan en "latino" com per exeplre "te enojaste" o "ahorita" etc.. o els tradueixo d'un castella per fer el cat. i els forçats els faig de 0 ^^
HoT.FuN l’ha editat per darrera vegada el dia: dl. 24 feb. 2014, 17:02, en total s’ha editat 1 vegada.
ImatgeImatge
Imatge
 
Avatar de l’usuari
AssasinBoy
Sanshinchu
Sanshinchu
Entrades: 211
Membre des de: dc. 18 jul. 2012, 08:09
Ubicació: En el coño de Bernarda.

Re: [MEGA] PORCO ROSSO [1080p][Multi Audio+Subs]

dj. 26 des. 2013, 03:46

Visca :excl: Un bot! :bleh:[/quote]
xD Doncs u trec d'internet.. de diferents llocs i desprès u munto :D y els subs els trec d'altres ASS o SRT els miro intento corretgir errors o faltes, cambio paraules per algunes altres ( ja que de vegades estan en "latino" com per exeplre "te enojaste" o "ahorita" etc.. o els tradueixo d'un castella per fer el cat. i els forçats els faig de 0 ^^[/quote]
T'admiro home!! Not Bad. ;-) :lol:
Imatge
 
Avatar de l’usuari
HoT.FuN
Sushinchu
Sushinchu
Entrades: 459
Membre des de: ds. 28 set. 2013, 01:08
Ubicació: Institut Shohoku

Re: [MEGA] PORCO ROSSO [1080p][Multi Audio+Subs] [GHIBLI]

dv. 10 gen. 2014, 05:32

Añadida versión 8 bits :D
ImatgeImatge
Imatge
 
Avatar de l’usuari
HIEI
Ushinchu
Ushinchu
Entrades: 1190
Membre des de: dt. 16 nov. 2004, 11:36
Ubicació: Montcada i Reixac
Contacta:

Re: [MEGA] PORCO ROSSO [1080p][Multi Audio+Subs] [GHIBLI]

dv. 10 gen. 2014, 10:20

Moltes gràcies, tenia moltes ganes de veure aquesta peli. :yeah:
Imatge
 
Avatar de l’usuari
HoT.FuN
Sushinchu
Sushinchu
Entrades: 459
Membre des de: ds. 28 set. 2013, 01:08
Ubicació: Institut Shohoku

Re: [MEGA] PORCO ROSSO [1080p][Multi Audio+Subs] [GHIBLI]

dv. 10 gen. 2014, 14:48

Gràcies a tu per comentar :yeah:
HoT.FuN l’ha editat per darrera vegada el dia: dl. 24 feb. 2014, 17:01, en total s’ha editat 1 vegada.
ImatgeImatge
Imatge
 
Avatar de l’usuari
Guillerq
Sushinchu
Sushinchu
Entrades: 435
Membre des de: dl. 14 ago. 2006, 20:38
Ubicació: Cercant un somni

Re: [MEGA] PORCO ROSSO [1080p][Multi Audio+Subs] [GHIBLI]

dg. 26 gen. 2014, 19:59

Moltes gràcies per compartir! Bona feina!
Imatge

Nickname change: gIRo12 -----> Guillerq
 
Avatar de l’usuari
HoT.FuN
Sushinchu
Sushinchu
Entrades: 459
Membre des de: ds. 28 set. 2013, 01:08
Ubicació: Institut Shohoku

Re: [MEGA] PORCO ROSSO [1080p][Multi Audio+Subs] [GHIBLI]

dt. 28 gen. 2014, 01:27

Ha tu :D
I ara no es podran queixar, amb la versió de la RAW 10 bits que vaig trobar, a un 8 bits fent suar el meu pc ^^u per guanyar compatibilitat per qui vulgui un mp4 o un mkv però 8 bits :D :yeah: a part de que es com un mirror si es cau el de 8 bits esta el de 10 xDD i si cau el de 10 esta el de 8 :D :ein: :lol:
HoT.FuN l’ha editat per darrera vegada el dia: dl. 24 feb. 2014, 17:06, en total s’ha editat 1 vegada.
ImatgeImatge
Imatge
 
Avatar de l’usuari
eudald
Sanshinchu
Sanshinchu
Entrades: 260
Membre des de: ds. 26 oct. 2013, 12:10
Ubicació: Barcelona

Re: [MEGA] PORCO ROSSO [1080p][Multi Audio+Subs] [GHIBLI]

dv. 21 feb. 2014, 14:11

I si cauen tots dos? :lol: Molt bona pel·lícula, gràcies. :yeah: Juraria que la tenia en VHS, així que me la podré mirar amb millor qualitat :profident:
 
Avatar de l’usuari
HoT.FuN
Sushinchu
Sushinchu
Entrades: 459
Membre des de: ds. 28 set. 2013, 01:08
Ubicació: Institut Shohoku

Re: [MEGA] PORCO ROSSO [1080p][Multi Audio+Subs] [GHIBLI]

dv. 21 feb. 2014, 22:25

eudald ha escrit:
I si cauen tots dos? [...]


Si es cauen tots dos, doncs la intento repujar :D. Encara que seria molt mala llet.. que es caiguessin les 2 a la vegada.. :/
HoT.FuN l’ha editat per darrera vegada el dia: dl. 24 feb. 2014, 17:04, en total s’ha editat 1 vegada.
ImatgeImatge
Imatge
 
rebellion
Usuari
Usuari
Entrades: 14
Membre des de: dg. 02 juny 2013, 20:32

Re: [MEGA] PORCO ROSSO [1080p][Multi Audio+Subs] [GHIBLI]

dl. 24 feb. 2014, 15:14

Abans de rés, moltísimes gràcies per la gran qualitat de les teves aportacions!!
Per altra banda, no soc capaç de descomprimir l'arxiu ja que em demana contrasenya.
Pot ser he fet qualque cosa malamente, ja que no he trobat que diguis a cap lloc rés de contrasenyes... podríes aclarir-ho?
Moltes gràcies!
 
Avatar de l’usuari
HoT.FuN
Sushinchu
Sushinchu
Entrades: 459
Membre des de: ds. 28 set. 2013, 01:08
Ubicació: Institut Shohoku

Re: [MEGA] PORCO ROSSO [1080p][Multi Audio+Subs] [GHIBLI]

dl. 24 feb. 2014, 16:37

rebellion ha escrit:
[...]
Per altra banda, no soc capaç de descomprimir l'arxiu ja que em demana contrasenya.
Pot ser he fet qualque cosa malamente, ja que no he trobat que diguis a cap lloc rés de contrasenyes... podríes aclarir-ho?
Moltes gràcies!


Segurament estàs fent servir WinRar o WinZip, i la peli en 10 bits esta comprimida amb 7zip proba amb aquest programa si no et deixa descarrega de nou la de 10 o la de 8 bits.
També pot ser que el rar estigui corromput i per això no es descomprimeix, ja que els rars solament es descomprimeixen si l'arxiu esta totalment integra.

PD: Que jo recordi en tota le meva vida mai e posat contrasenya a un arxiu comprimit :s
ImatgeImatge
Imatge

Qui està connectat

Usuaris navegant en aquest fòrum: No hi ha cap usuari registrat i 9 visitants