Anime i manga en català

Moderadors: Steve Maister, wachimiro, Bilkoff

 
lizgon
Sanshinchu
Sanshinchu
Entrades: 236
Membre des de: ds. 19 maig 2012, 18:33

Re: [MEGA] El Viaje de Chihiro [BDRIP 1080p] [GHIBLI]

dt. 01 maig 2018, 16:48

yuan85 ha escrit:
Estic buscant aquesta peli si pot ser en català. No la trobo enlloc, oi que l'heu penjat?? On esta?


En aquesta part del tema, has de clicar a on hi ha les 3 fletxes cap abaix i posa "LINKS DE DESCARGA 8 BITS, DISFRUTAD"

LINK DE DESCARGA 8 BITS
Imatge
↓↓↓
LINKS DE DESCARGA 8 BITS, DISFRUTAD
MIRROR 1
Imatge
MIRROR 2
Imatge
Nota: Los 2 Links son el mismo pero con distinta web encryptadora ^^

TUTORIAL PARA LA DESCARGA
Primero de todo tener el JDowloader (V2) o Mipony abierto, y cuando estés en la página ncrypt.in o Subedlc.com, tendrás que resolver un captcha (probablemente un puzzle) y después, hacer click en el botón CNL2 o Clic'N'Load
Si hacéis click en Permitir los links de MEGA se agregarán automáticamente a JDowloader (También podéis usar Mipony)
Y luego Con WinRAR 5 descomprimís los archivos usando la contraseña nombrada abajo.
 
Avatar de l’usuari
HoT.FuN
Sushinchu
Sushinchu
Entrades: 468
Membre des de: ds. 28 set. 2013, 01:08
Ubicació: Institut Shohoku

Re: [MEGA] El Viaje de Chihiro [BDRIP 1080p] [GHIBLI]

dc. 02 maig 2018, 00:54

lizgon gracias por ayudarle ^^
ImatgeImatge
Imatge
 
Avatar de l’usuari
Steve Maister
Moderadors
Moderadors
Entrades: 1914
Membre des de: dc. 05 març 2008, 18:16
Contacta:

Re: [MEGA] El Viaje de Chihiro [BDRIP 1080p] [GHIBLI]

dg. 10 juny 2018, 17:25

Después de 1 año retomo mi visionado de Ghibli, y me tocaba Chihiro, así que me paso por el hilo a agradecer el aporte, que tiene una calidad brutal :yeah:

Qué delicia de película.
 
Avatar de l’usuari
eudald
Sanshinchu
Sanshinchu
Entrades: 263
Membre des de: ds. 26 oct. 2013, 12:10
Ubicació: Barcelona

Re: [MEGA] El Viaje de Chihiro [BDRIP 1080p] [GHIBLI]

dl. 23 jul. 2018, 23:54

Bé, després d'un parell o tres anys de perdre el disc dur amb tot l'anime tocava re-descarregar tot Ghibli! Gràcies Hot.Fun un altre cop per la feina que vas fer :D Un grande.
 
Avatar de l’usuari
HoT.FuN
Sushinchu
Sushinchu
Entrades: 468
Membre des de: ds. 28 set. 2013, 01:08
Ubicació: Institut Shohoku

Re: [MEGA] El Viaje de Chihiro [BDRIP 1080p] [GHIBLI]

dv. 03 ago. 2018, 16:27

:wub: :wub: :wub: :wub:
ImatgeImatge
Imatge
 
ryute7
Usuari
Usuari
Entrades: 1
Membre des de: dv. 26 oct. 2018, 16:44

Re: [MEGA] El Viaje de Chihiro [BDRIP 1080p] [GHIBLI]

dg. 04 nov. 2018, 01:46

HoT.FuN ha escrit:
Imatge
Título original: Sen to Chihiro no kamikakushi (Spirited Away)
Año: 2001
Duración: 124 min.
País: Japón
Director: Hayao Miyazaki
Guión: Hayao Miyazaki
Música: Joe Hisaishi
Fotografía: Animation
Reparto: Animation
Productora: Coproducción Japón-USA; Studio Ghibli / Tokuma Shoten / Dentsu / Walt Disney Pictures
Género: Animación. Fantástico. Aventuras | Dragones. Película de culto

Web Oficial: http://www.nausicaa.net/miyazaki/sen/" onclick="window.open(this.href);return false;

Sinopsis:
Chihiro es una niña de diez años que viaja en coche con sus padres. Después de atravesar un túnel, llegan a un mundo fantástico, en el que no hay lugar para los seres humanos, sólo para los dioses de primera y segunda clase. Cuando descubre que sus padres han sido convertidos en cerdos, Chihiro se siente muy sola y asustada.

Premios:
2002: Oscar: Mejor largometraje de animación
2003: Nominada Premios BAFTA: Mejor película de habla no inglesa
2002: Festival de Berlín: Oso de Oro (ex aequo con "Bloody Sunday")
2002: Nominada Cesar: Mejor película extranjera
2002: National Board of Review: Mejor largometraje animado
2002: Asociación de Críticos de Los Angeles: Mejor largometraje de animación
2002: Festival de Sitges: premio especial (Hayao Miyazaki). 2 nominaciones
2002: Critics' Choice Awards: Mejor largometraje de animación
2002: Círculo de Críticos de Nueva York: Mejor largometraje de animación


Mediainfo:
Spoiler: mostra
Complete name : El Viaje de Chihiro [2001][BDrip m-1080p] [71BF05D3].mkv
Format : Matroska
Format version : Version 4 / Version 2
File size : 4.15 GiB
Duration : 2h 4mn
Overall bit rate : 4 766 Kbps
Movie name : By HoT.FuN
Encoded date : UTC 2014-07-07 02:04:02
Writing application : mkvmerge v7.0.0 ('Where We Going') 64bit built on Jun 9 2014 15:16:27
Writing library : libebml v1.3.0 + libmatroska v1.4.1
DURATION : 02:03:51.647000000
NUMBER_OF_FRAMES : 1115
NUMBER_OF_BYTES : 30511
_STATISTICS_WRITING_APP : mkvmerge v7.0.0 ('Where We Going') 64bit built on Jun 9 2014 15:16:27
_STATISTICS_WRITING_DATE_UTC : 2014-07-07 02:04:02
_STATISTICS_TAGS : BPS DURATION NUMBER_OF_FRAMES NUMBER_OF_BYTES
Attachment : Yes / Yes / Yes / Yes

Video
ID : 1
Format : AVC
Format/Info : Advanced Video Codec
Format profile : High@L4.1
Format settings, CABAC : Yes
Format settings, ReFrames : 4 frames
Codec ID : V_MPEG4/ISO/AVC
Duration : 2h 4mn
Bit rate : 3 675 Kbps
Width : 1 920 pixels
Height : 1 040 pixels
Display aspect ratio : 16:9
Original display aspect ratio : 1.85:1
Frame rate mode : Constant
Frame rate : 23.976 fps
Color space : YUV
Chroma subsampling : 4:2:0
Bit depth : 8 bits
Scan type : Progressive
Bits/(Pixel*Frame) : 0.077
Stream size : 3.12 GiB (75%)
Title : Versión Blu-Ray de Junio 2014 By HoT.FuN
Writing library : x264 core 138 r2358 9e941d1
Encoding settings : cabac=1 / ref=4 / deblock=1:1:1 / analyse=0x3:0x133 / me=hex / subme=7 / psy=1 / psy_rd=0.40:0.00 / mixed_ref=1 / me_range=16 / chroma_me=1 / trellis=1 / 8x8dct=1 / cqm=0 / deadzone=21,11 / fast_pskip=1 / chroma_qp_offset=-2 / threads=6 / lookahead_threads=1 / sliced_threads=0 / nr=0 / decimate=1 / interlaced=0 / bluray_compat=0 / constrained_intra=0 / bframes=5 / b_pyramid=2 / b_adapt=2 / b_bias=0 / direct=3 / weightb=1 / open_gop=0 / weightp=2 / keyint=240 / keyint_min=23 / scenecut=40 / intra_refresh=0 / rc_lookahead=40 / rc=2pass / mbtree=1 / bitrate=3675 / ratetol=1.0 / qcomp=0.60 / qpmin=0 / qpmax=69 / qpstep=4 / cplxblur=20.0 / qblur=0.5 / vbv_maxrate=62500 / vbv_bufsize=78125 / nal_hrd=none / ip_ratio=1.40 / aq=1:0.60
Language : Spanish
Default : Yes
Forced : No
DURATION : 02:04:32.257000000
NUMBER_OF_FRAMES : 179155
NUMBER_OF_BYTES : 3433311432
_STATISTICS_WRITING_APP : mkvmerge v7.0.0 ('Where We Going') 64bit built on Jun 9 2014 15:16:27
_STATISTICS_WRITING_DATE_UTC : 2014-07-07 02:04:02
_STATISTICS_TAGS : BPS DURATION NUMBER_OF_FRAMES NUMBER_OF_BYTES

Audio #1
ID : 2
Format : AC-3
Format/Info : Audio Coding 3
Mode extension : CM (complete main)
Format settings, Endianness : Big
Codec ID : A_AC3
Duration : 2h 4mn
Bit rate mode : Constant
Bit rate : 192 Kbps
Channel count : 2 channels
Channel positions : Front: L R
Sampling rate : 48.0 KHz
Bit depth : 16 bits
Compression mode : Lossy
Stream size : 171 MiB (4%)
Title : Català [AC3 192 Kbps 2.0] By HoT.FuN
Language : Catalan
Default : Yes
Forced : No

Audio #2
ID : 3
Format : AC-3
Format/Info : Audio Coding 3
Mode extension : CM (complete main)
Format settings, Endianness : Big
Codec ID : A_AC3
Duration : 2h 4mn
Bit rate mode : Constant
Bit rate : 448 Kbps
Channel count : 6 channels
Channel positions : Front: L C R, Side: L R, LFE
Sampling rate : 48.0 KHz
Bit depth : 16 bits
Compression mode : Lossy
Stream size : 399 MiB (9%)
Title : Castellano [AC3 448 Kbps 5.1]
Language : Spanish
Default : No
Forced : No

Audio #3
ID : 4
Format : AC-3
Format/Info : Audio Coding 3
Mode extension : CM (complete main)
Format settings, Endianness : Big
Codec ID : A_AC3
Duration : 2h 4mn
Bit rate mode : Constant
Bit rate : 448 Kbps
Channel count : 6 channels
Channel positions : Front: L C R, Side: L R, LFE
Sampling rate : 48.0 KHz
Bit depth : 16 bits
Compression mode : Lossy
Stream size : 399 MiB (9%)
Title : Japonés [AC3 448 Kbps 5.1]
Language : Japanese
Default : No
Forced : No

Text #1
ID : 5
Format : ASS
Codec ID : S_TEXT/ASS
Codec ID/Info : Advanced Sub Station Alpha
Compression mode : Lossless
Title : Català Forçats [ASS] By HoT.FuN
Language : Catalan
Default : Yes
Forced : Yes

Text #2
ID : 6
Format : ASS
Codec ID : S_TEXT/ASS
Codec ID/Info : Advanced Sub Station Alpha
Compression mode : Lossless
Title : Castellano Forzados [ASS] By HoT.FuN
Language : Spanish
Default : No
Forced : No

Text #3
ID : 7
Format : ASS
Codec ID : S_TEXT/ASS
Codec ID/Info : Advanced Sub Station Alpha
Compression mode : Lossless
Title : Castellano Completos [ASS] By HoT.FuN
Language : Spanish
Default : No
Forced : No

Text #4
ID : 8
Format : UTF-8
Codec ID : S_TEXT/UTF8
Codec ID/Info : UTF-8 Plain Text
Title : Castellano Completos [SRT]
Language : Spanish
Default : No
Forced : No

Menu
00:00:00.000 : en:Chapter 01
00:01:39.099 : en:Chapter 02
00:03:16.238 : en:Chapter 03
00:07:23.526 : en:Chapter 04
00:10:45.395 : en:Chapter 05
00:17:03.022 : en:Chapter 06
00:22:48.534 : en:Chapter 07
00:28:36.048 : en:Chapter 08
00:33:28.173 : en:Chapter 09
00:38:21.674 : en:Chapter 10
00:44:11.816 : en:Chapter 11
00:48:26.821 : en:Chapter 12
00:54:31.351 : en:Chapter 13
01:02:09.017 : en:Chapter 14
01:08:11.587 : en:Chapter 15
01:14:36.847 : en:Chapter 16
01:19:10.579 : en:Chapter 17
01:25:39.760 : en:Chapter 18
01:31:18.890 : en:Chapter 19
01:37:33.806 : en:Chapter 20
01:45:18.937 : en:Chapter 21
01:50:25.118 : en:Chapter 22
01:52:51.098 : en:Chapter 23
01:55:14.199 : en:Chapter 24
02:00:53.580 : en:Chapter 25


Información Básica
Fuente de vídeo: Blu-Ray 1080p de 16 junio de 2014
Contenedor: mkv
Códec: x264 8 Bits
Tamaño: 4.15 GB
Tasa de Bits total: 4 766 Kbps
Resolución: 1920x1040
Audio 1: Català AC3 192 Kbps 2 Channels
Audio 2: Castellano AC3 448 Kbps 6 Channels
Audio 3: Japonés AC3 448 Kbps 6 Channels
Montador, Sincronizador y Uploader: HoT.FuN
Subtitulos: Català Forçats [ASS], Castellano Forzados [ASS], Castellano Completos [ASS y SRT], By HoT.FuN
Nota:
Spoiler: mostra
La imagen original es de 1040 yo con el mkvmerge la he estirado para completar a 1080p ya que es tan mínimo que si no lo dijesen los archivos como Mediainfo ni se notaria, quien quiera poner su aspect ratio original que use el mkvmerge seleccione la pista de vídeo, luego opciones específicas de formato y ponga altura/anchura de formato y cambie el 1080 por 1040 y volverá a su original. ^^



Capturas de esta versión, de la de arcami y de mi otra relese para comparar
Spoiler: mostra
Captura de la relese HDTV de Arcami
Imatge
Captura de esta Relese BluRayRip
Imatge
Captura de mi otra Version en HDTV
Imatge


LINK DE DESCARGA 8 BITS
Imatge
↓↓↓
LINKS DE DESCARGA 8 BITS, DISFRUTAD
MIRROR 1
Imatge
MIRROR 2
Imatge
Nota: Los 2 Links son el mismo pero con distinta web encryptadora ^^

TUTORIAL PARA LA DESCARGA
Primero de todo tener el JDowloader (V2) o Mipony abierto, y cuando estés en la página ncrypt.in o Subedlc.com, tendrás que resolver un captcha (probablemente un puzzle) y después, hacer click en el botón CNL2 o Clic'N'Load
Si hacéis click en Permitir los links de MEGA se agregarán automáticamente a JDowloader (También podéis usar Mipony)
Y luego Con WinRAR 5 descomprimís los archivos usando la contraseña nombrada abajo.

Imatge
=> "HoT.FuN" <=
Sin las comillas ni las flechas :D Y Escribid exactamente = la contraseña, con las mayúsculas y minúsculas u os dará error!

Para comprobar si la película se ha descargado bien podéis usar este programa RapidCRC. Usa los números que pongo en el nombre de la película para decir si se ha bajado correctamente o no ^^


Gràcies :)

Qui està connectat

Usuaris navegant en aquest fòrum: No hi ha cap usuari registrat i 7 visitants