Anime i manga en català

Moderadors: Steve Maister, wachimiro, Bilkoff

 
Avatar de l’usuari
Bilkoff
Moderadors
Moderadors
Entrades: 796
Membre des de: dt. 05 oct. 2004, 19:22
Ubicació: Borriana

[YD] Buda 2: Camino a la iluminación

dl. 29 des. 2014, 22:56

Buddha 2: Tezuka Osamu no Buddha - Owarinaki Tabi
BUDDHA 2: 手塚治虫のブッダ~終わりなき旅~

Imatge


ANY: 2014
DURACIÓ: 85 min.
DIRECTOR: Toshiaki Komura
GUIO ORIGINAL: Osamu Tezuka
MÚSICA: Michiru Oshima
SINOPSIS: "Hace 2500 años, Siddharta nació en el Reino de Shakya de la India, pero renuncia a su posición como Príncipe heredero para poder descubrir el mundo por sí mismo. En esta nueva etapa de su viaje hacia la iluminación conocerá a nuevos compañeros, como Assaji, un extraño muchacho que puede predecir el futuro, o Depa, un monje con un solo ojo. Abrumado por todo el sufrimiento que le rodea, Siddharta no es consciente que mientras él continúa su viaje, el Reino de Kosala, liderado por el Príncipe Ruri, se prepara para llevar a cabo el ataque definitivo contra Shakya. Secuela de "Buda: El gran viaje""

Contenidor: mkv.
Formats: x264, dts, ac3 i srt.
Àudio: Castellà, català, japonès.
Subtítols: Castellà, català.
Qualitat: Rip del blu-ray original.
Mida total: 4'37 Gb (1DVD)

Report Mediainfo
General
Unique ID : 170290657210363052701046288842836095623 (0x801CC99FF65DC4D5A28D28A382A33287)
Complete name : C:\Buda 2.mkv
Format : Matroska
Format version : Version 4 / Version 2
File size : 4.37 GiB
Duration : 1h 25mn
Overall bit rate : 7 329 Kbps
Movie name : Buddha: Owarinaki Tabi
Encoded date : UTC 2014-12-24 17:37:47
Writing application : mkvmerge v7.4.0 ('Circles') 32bit built on Dec 12 2014 12:10:09
Writing library : libebml v1.3.0 + libmatroska v1.4.1
DURATION : 01:18:56.690000000
NUMBER_OF_FRAMES : 788
NUMBER_OF_BYTES : 24739
_STATISTICS_WRITING_APP : mkvmerge v7.4.0 ('Circles') 32bit built on Dec 12 2014 12:10:09
_STATISTICS_WRITING_DATE_UTC : 2014-12-24 17:37:47
_STATISTICS_TAGS : BPS DURATION NUMBER_OF_FRAMES NUMBER_OF_BYTES

Video
ID : 1
Format : AVC
Format/Info : Advanced Video Codec
Format profile : High@L4.1
Format settings, CABAC : Yes
Format settings, ReFrames : 4 frames
Codec ID : V_MPEG4/ISO/AVC
Duration : 1h 25mn
Bit rate : 5 343 Kbps
Width : 1 920 pixels
Height : 1 080 pixels
Display aspect ratio : 16:9
Frame rate mode : Constant
Frame rate : 23.976 fps
Color space : YUV
Chroma subsampling : 4:2:0
Bit depth : 8 bits
Scan type : Progressive
Bits/(Pixel*Frame) : 0.107
Stream size : 3.10 GiB (71%)
Writing library : x264 core 142 r2491 24e4fed
Encoding settings : cabac=1 / ref=4 / deblock=1:1:1 / analyse=0x3:0x133 / me=umh / subme=10 / psy=1 / psy_rd=0.40:0.00 / mixed_ref=1 / me_range=24 / chroma_me=1 / trellis=2 / 8x8dct=1 / cqm=0 / deadzone=21,11 / fast_pskip=1 / chroma_qp_offset=-2 / threads=6 / lookahead_threads=1 / sliced_threads=0 / nr=0 / decimate=1 / interlaced=0 / bluray_compat=0 / constrained_intra=0 / bframes=10 / b_pyramid=2 / b_adapt=2 / b_bias=0 / direct=3 / weightb=1 / open_gop=0 / weightp=2 / keyint=240 / keyint_min=23 / scenecut=40 / intra_refresh=0 / rc_lookahead=60 / rc=2pass / mbtree=1 / bitrate=5343 / ratetol=1.0 / qcomp=0.60 / qpmin=0 / qpmax=69 / qpstep=4 / cplxblur=20.0 / qblur=0.5 / vbv_maxrate=62500 / vbv_bufsize=78125 / nal_hrd=none / filler=0 / ip_ratio=1.40 / aq=1:0.60
Default : Yes
Forced : No

Audio #1
ID : 2
Format : AC-3
Format/Info : Audio Coding 3
Mode extension : CM (complete main)
Format settings, Endianness : Big
Codec ID : A_AC3
Duration : 1h 25mn
Bit rate mode : Constant
Bit rate : 448 Kbps
Channel(s) : 6 channels
Channel positions : Front: L C R, Side: L R, LFE
Sampling rate : 48.0 KHz
Bit depth : 16 bits
Compression mode : Lossy
Stream size : 274 MiB (6%)
Language : Catalan
Default : Yes
Forced : No

Audio #2
ID : 3
Format : DTS
Format/Info : Digital Theater Systems
Mode : 16
Format settings, Endianness : Big
Codec ID : A_DTS
Duration : 1h 25mn
Bit rate mode : Constant
Bit rate : 768 Kbps
Channel(s) : 6 channels
Channel positions : Front: L C R, Side: L R, LFE
Sampling rate : 48.0 KHz
Bit depth : 24 bits
Compression mode : Lossy
Stream size : 469 MiB (10%)
Language : Spanish
Default : No
Forced : No

Audio #3
ID : 4
Format : DTS
Format/Info : Digital Theater Systems
Mode : 16
Format settings, Endianness : Big
Codec ID : A_DTS
Duration : 1h 25mn
Bit rate mode : Constant
Bit rate : 768 Kbps
Channel(s) : 6 channels
Channel positions : Front: L C R, Side: L R, LFE
Sampling rate : 48.0 KHz
Bit depth : 24 bits
Compression mode : Lossy
Stream size : 469 MiB (10%)
Language : Japanese
Default : No
Forced : No

Text #1
ID : 5
Format : UTF-8
Codec ID : S_TEXT/UTF8
Codec ID/Info : UTF-8 Plain Text
Language : Spanish
Default : Yes
Forced : No

Text #2
ID : 6
Format : UTF-8
Codec ID : S_TEXT/UTF8
Codec ID/Info : UTF-8 Plain Text
Language : Catalan
Default : No
Forced : No

Menu
00:00:00.000 : en:00:00:00.000
00:09:00.790 : en:00:09:00.790
00:17:22.458 : en:00:17:22.458
00:24:00.314 : en:00:24:00.314
00:33:46.775 : en:00:33:46.775
00:42:41.642 : en:00:42:41.642
00:52:12.129 : en:00:52:12.129
01:02:19.444 : en:01:02:19.444
01:09:52.188 : en:01:09:52.188


Descàrrega
 
suloku
Ushinchu
Ushinchu
Entrades: 1010
Membre des de: dl. 02 jul. 2007, 13:10

Re: [YD] Buda 2: Camino a la iluminación

dt. 30 des. 2014, 16:32

Moltes gràcies, té bona pinta :D
 
cronos
Arashinchu
Arashinchu
Entrades: 99
Membre des de: dt. 03 juny 2014, 22:34

Re: [YD] Buda 2: Camino a la iluminación

ds. 21 gen. 2017, 11:40

a veure que tenim.... :D

Qui està connectat

Usuaris navegant en aquest fòrum: Google [Bot] i 4 visitants