Anime i manga en català

Moderadors: Steve Maister, wachimiro, Bilkoff

 
Avatar de l’usuari
Bilkoff
Moderadors
Moderadors
Entrades: 797
Membre des de: dt. 05 oct. 2004, 19:22
Ubicació: Borriana

Bola de Drac Z La Batalla dels Déus ESTESA

dg. 22 nov. 2015, 16:54

Bola de Drac Z La Batalla dels Déus
ドラゴンボールZ 神と神 Doragon Boru Zetto: Kami to Kami

Imatge


ANY: 2013
DURACIÓ: 85 min.
DIRECTOR: Masahiro Hosoda
GUIO: Yūsuke Watanabe
MÚSICA: Norihito Sumitomo
PRODUCTOR: Hashimoto Kunio
SINOPSIS: "Algunos años después de la batalla con Majin Buu, Bils, el dios de la destrucción, encargado de mantener el equilibrio del universo, se ha despertado de un largo sueño. Al escuchar rumores sobre un saiyajin que ha vencido a Freezer, Bils parte a la búsqueda de Goku. Emocionado por el hecho de que haya aparecido, después de tanto tiempo, un oponente tan poderoso, Goku ignora las advertencias de Kaito y decide enfrentarse a él."

Contenidor: mkv.
Formats: x264, ac3 i srt.
Àudio: Japonès, castellà, català i basc.
Subtítols: Castellà, català, i basc.
Qualitat: Rip del blu-ray original.
Mida total: 4'37 Gb (1DVD).

Report Mediainfo
General
Unique ID                   : 250970424888754866968868789546589822028 (0xBCCF2548FBADDF919279FAD0526F1C4C)
Complete name               : C:\Dragon Ball Z Kami to Kami EXTENDED.mkv
Format                      : Matroska
Format version              : Version 4 / Version 2
File size                   : 4.37 GiB
Duration                    : 1h 45mn
Overall bit rate            : 5 960 Kbps
Movie name                  : Dragon Ball Z Battle of Gods Extended
Encoded date                : UTC 2015-11-15 17:27:19
Writing application         : mkvmerge v8.5.2 ('Crosses') 64bit
Writing library             : libebml v1.3.3 + libmatroska v1.4.4
DURATION                    : 01:44:21.672000000
NUMBER_OF_FRAMES            : 1338
NUMBER_OF_BYTES             : 47781
_STATISTICS_WRITING_APP     : mkvmerge v8.5.2 ('Crosses') 64bit
_STATISTICS_WRITING_DATE_UT : 2015-11-15 17:27:19
_STATISTICS_TAGS            : BPS DURATION NUMBER_OF_FRAMES NUMBER_OF_BYTES

Video
ID                          : 1
Format                      : AVC
Format/Info                 : Advanced Video Codec
Format profile              : High@L4.1
Format settings, CABAC      : Yes
Format settings, ReFrames   : 4 frames
Codec ID                    : V_MPEG4/ISO/AVC
Duration                    : 1h 45mn
Bit rate                    : 3 396 Kbps
Width                       : 1 920 pixels
Height                      : 1 080 pixels
Display aspect ratio        : 16:9
Frame rate mode             : Constant
Frame rate                  : 23.976 fps
Color space                 : YUV
Chroma subsampling          : 4:2:0
Bit depth                   : 8 bits
Scan type                   : Progressive
Bits/(Pixel*Frame)          : 0.068
Stream size                 : 2.41 GiB (55%)
Writing library             : x264 core 148 r2638 7599210
Encoding settings           : cabac=1 / ref=4 / deblock=1:1:1 / analyse=0x3:0x133 / me=umh / subme=10 / psy=1 / psy_rd=0.40:0.00 / mixed_ref=1 / me_range=24 / chroma_me=1 / trellis=2 / 8x8dct=1 / cqm=0 / deadzone=21,11 / fast_pskip=1 / chroma_qp_offset=-2 / threads=12 / lookahead_threads=3 / sliced_threads=0 / nr=0 / decimate=1 / interlaced=0 / bluray_compat=0 / constrained_intra=0 / bframes=10 / b_pyramid=2 / b_adapt=2 / b_bias=0 / direct=3 / weightb=1 / open_gop=0 / weightp=2 / keyint=240 / keyint_min=23 / scenecut=40 / intra_refresh=0 / rc_lookahead=60 / rc=2pass / mbtree=1 / bitrate=3396 / ratetol=1.0 / qcomp=0.60 / qpmin=0 / qpmax=69 / qpstep=4 / cplxblur=20.0 / qblur=0.5 / vbv_maxrate=50000 / vbv_bufsize=62500 / nal_hrd=none / filler=0 / ip_ratio=1.40 / aq=1:0.60
Default                     : Yes
Forced                      : No

Audio #1
ID                          : 2
Format                      : AC-3
Format/Info                 : Audio Coding 3
Mode extension              : CM (complete main)
Format settings, Endianness : Big
Codec ID                    : A_AC3
Duration                    : 1h 45mn
Bit rate mode               : Constant
Bit rate                    : 512 Kbps
Channel(s)                  : 2 channels
Channel positions           : Front: L R
Sampling rate               : 48.0 KHz
Compression mode            : Lossy
Stream size                 : 385 MiB (9%)
Language                    : Spanish
Default                     : No
Forced                      : No

Audio #2
ID                          : 3
Format                      : AC-3
Format/Info                 : Audio Coding 3
Mode extension              : CM (complete main)
Format settings, Endianness : Big
Codec ID                    : A_AC3
Duration                    : 1h 45mn
Bit rate mode               : Constant
Bit rate                    : 512 Kbps
Channel(s)                  : 2 channels
Channel positions           : Front: L R
Sampling rate               : 48.0 KHz
Compression mode            : Lossy
Stream size                 : 385 MiB (9%)
Language                    : Catalan
Default                     : No
Forced                      : No

Audio #3
ID                          : 4
Format                      : AC-3
Format/Info                 : Audio Coding 3
Mode extension              : CM (complete main)
Format settings, Endianness : Big
Codec ID                    : A_AC3
Duration                    : 1h 45mn
Bit rate mode               : Constant
Bit rate                    : 512 Kbps
Channel(s)                  : 2 channels
Channel positions           : Front: L R
Sampling rate               : 48.0 KHz
Compression mode            : Lossy
Stream size                 : 385 MiB (9%)
Language                    : Catalan
Default                     : No
Forced                      : No

Audio #4
ID                          : 5
Format                      : AC-3
Format/Info                 : Audio Coding 3
Mode extension              : CM (complete main)
Format settings, Endianness : Big
Codec ID                    : A_AC3
Duration                    : 1h 45mn
Bit rate mode               : Constant
Bit rate                    : 512 Kbps
Channel(s)                  : 2 channels
Channel positions           : Front: L R
Sampling rate               : 48.0 KHz
Compression mode            : Lossy
Stream size                 : 385 MiB (9%)
Language                    : Basque
Default                     : No
Forced                      : No

Audio #5
ID                          : 6
Format                      : AC-3
Format/Info                 : Audio Coding 3
Mode extension              : CM (complete main)
Format settings, Endianness : Big
Codec ID                    : A_AC3
Duration                    : 1h 45mn
Bit rate mode               : Constant
Bit rate                    : 512 Kbps
Channel(s)                  : 2 channels
Channel positions           : Front: L R
Sampling rate               : 48.0 KHz
Compression mode            : Lossy
Stream size                 : 385 MiB (9%)
Language                    : Japanese
Default                     : Yes
Forced                      : No

Text #1
ID                          : 7
Format                      : UTF-8
Codec ID                    : S_TEXT/UTF8
Codec ID/Info               : UTF-8 Plain Text
Title                       : forced
Language                    : Spanish
Default                     : No
Forced                      : No

Text #2
ID                          : 8
Format                      : UTF-8
Codec ID                    : S_TEXT/UTF8
Codec ID/Info               : UTF-8 Plain Text
Language                    : Spanish
Default                     : Yes
Forced                      : No

Text #3
ID                          : 9
Format                      : UTF-8
Codec ID                    : S_TEXT/UTF8
Codec ID/Info               : UTF-8 Plain Text
Title                       : forced
Language                    : Catalan
Default                     : No
Forced                      : No

Text #4
ID                          : 10
Format                      : UTF-8
Codec ID                    : S_TEXT/UTF8
Codec ID/Info               : UTF-8 Plain Text
Language                    : Catalan
Default                     : No
Forced                      : No

Text #5
ID                          : 11
Format                      : UTF-8
Codec ID                    : S_TEXT/UTF8
Codec ID/Info               : UTF-8 Plain Text
Title                       : forced
Language                    : Basque
Default                     : No
Forced                      : No

Text #6
ID                          : 12
Format                      : UTF-8
Codec ID                    : S_TEXT/UTF8
Codec ID/Info               : UTF-8 Plain Text
Language                    : Basque
Default                     : No
Forced                      : No

Menu
00:00:00.000                : en:00:00:00.000
00:06:56.125                : en:00:06:56.125
00:16:13.348                : en:00:16:13.348
00:28:23.577                : en:00:28:23.577
00:35:59.866                : en:00:35:59.866
00:46:37.494                : en:00:46:37.494
00:53:28.997                : en:00:53:28.997
01:01:48.956                : en:01:01:48.956
01:10:56.586                : en:01:10:56.586
01:18:06.807                : en:01:18:06.807
01:28:32.141                : en:01:28:32.141
01:36:14.477                : en:01:36:14.477


Descàrrega
1fichier
yandex
 
Avatar de l’usuari
MarshmallowMan
Sanshinchu
Sanshinchu
Entrades: 204
Membre des de: dv. 19 feb. 2016, 23:30

Re: Bola de Drac Z La Batalla dels Déus ESTESA

dj. 03 març 2016, 18:49

¡¡Moltes gràcies!! T´ho agraeixo molt que l´hagis volgut compartir amb nosaltres. :yeah: ¡¡Saluts!! :adeu:
 
Avatar de l’usuari
Lluc_masu*
Arashinchu
Arashinchu
Entrades: 102
Membre des de: ds. 10 gen. 2009, 17:12

Re: Bola de Drac Z La Batalla dels Déus ESTESA

ds. 12 març 2016, 18:39

gràcies! :)
 
Avatar de l’usuari
xagasa
Chishinchu
Chishinchu
Entrades: 3433
Membre des de: dl. 26 maig 2014, 10:16
Ubicació: Planeta M2

Re: Bola de Drac Z La Batalla dels Déus ESTESA

dc. 18 maig 2016, 01:21

Gracies per aquesta versió estesa.
 
zarkillo
Arashinchu
Arashinchu
Entrades: 167
Membre des de: dj. 30 des. 2010, 16:04

Re: Bola de Drac Z La Batalla dels Déus ESTESA

dl. 06 març 2017, 20:18

Hola,
Sabeu quina diferència hi ha entre la versió curta i la llarga?
Gràcies
 
Avatar de l’usuari
Bilkoff
Moderadors
Moderadors
Entrades: 797
Membre des de: dt. 05 oct. 2004, 19:22
Ubicació: Borriana

Re: Bola de Drac Z La Batalla dels Déus ESTESA

dt. 07 març 2017, 03:10

zarkillo ha escrit:
Hola,
Sabeu quina diferència hi ha entre la versió curta i la llarga?
Gràcies

En anglès està detallat a http://www.movie-censorship.com/report.php?ID=865492
Resum: 19 minuts i 41 segons, causat per 55 talls i 3 escenes de metratge alternatiu.

Qui està connectat

Usuaris navegant en aquest fòrum: No hi ha cap usuari registrat i 10 visitants