Anime i manga en català

Moderadors: Steve Maister, wachimiro, Bilkoff

 
suloku
Ushinchu
Ushinchu
Entrades: 1010
Membre des de: dl. 02 jul. 2007, 13:10

[MEGA] Blue Dragon: Tenkai no Sichi Ryu (51/51) (DVBrip)

dc. 17 feb. 2016, 23:50

Imatge
Burû Doragon - Burû Doragon: Tenkai no Shichiryû (Blue Dragon - Blue Dragon: The Seven Sky Dragons) (TV Series)
Any: 2007
Duració: 25 min.
País: Japan Japan
Director: Yukihiro Matsushita, Akira Toriyama (Creator), Hironobu Sakaguchi (Creator)
Guió: Videogame: Hironobu Sakaguchi, Akira Toriyama
Música: Megumi Oohashi, Nobuo Uematsu
Cinematografia: Atsuho Matsumoto
Cast: Animation
Productora: SKY Perfect Wellthink / TV Tokyo / Pierrot / Mistwalker
Gènere: TV Series. Animation. Adventure. Comedy. Fantasy | Dragons. Based on Video Games
Web Official: http://www.tv-tokyo.co.jp/anime/bluedragon/

Montador i ripper: Osky
Uploader: suloku

Video: 640x480 DVBrip
Audio: 128 kbps mp3 català


Sinopsis:
Rere els esdeveniments de Blue Dragon, Shu i Bouquet s'uneixen a un grup de la resistència per lliutar contra l'exèrcit d'invasió del general Rogi. Es troben amb un noi misteriós, en Noi, qui té el poder de reviure el Drac Blau de l'ombra d'en Shu, i salvar-la de la persecució del Drac Roig. Ara en Shu i la seva companya s'enbarquen una vegada més en un viatge per descovrir el propòsit dels dracs, superar obstacles i aturar la cadena d'esdeveniments que amenaça el destí de la humanitat. (kissanime)



Mediainfo:
General
Complete name : BD - TnSR 01 - El drac vermell (DVBrip).avi
Format : AVI
Format/Info : Audio Video Interleave
File size : 245 MiB
Duration : 20mn 58s
Overall bit rate : 1 633 Kbps
Writing application : VirtualDubMod 1.5.10.2 (build 2540/release)
Writing library : VirtualDubMod build 2540/release

Video
ID : 0
Format : MPEG-4 Visual
Format profile : Advanced Simple@L5
Format settings, BVOP : 2
Format settings, QPel : No
Format settings, GMC : No warppoints
Format settings, Matrix : Default (H.263)
Muxing mode : Packed bitstream
Codec ID : XVID
Codec ID/Hint : XviD
Duration : 20mn 58s
Bit rate : 1 495 Kbps
Width : 640 pixels
Height : 480 pixels
Display aspect ratio : 5:4
Original display aspect ratio : 4:3
Frame rate : 25.000 fps
Color space : YUV
Chroma subsampling : 4:2:0
Bit depth : 8 bits
Scan type : Progressive
Compression mode : Lossy
Bits/(Pixel*Frame) : 0.195
Stream size : 224 MiB (92%)
Writing library : XviD 1.2.1 (UTC 2008-12-04)

Audio
ID : 1
Format : MPEG Audio
Format version : Version 1
Format profile : Layer 3
Mode : Joint stereo
Mode extension : MS Stereo
Codec ID : 55
Codec ID/Hint : MP3
Duration : 20mn 58s
Bit rate mode : Constant
Bit rate : 128 Kbps
Channel(s) : 2 channels
Sampling rate : 48.0 KHz
Compression mode : Lossy
Stream size : 19.2 MiB (8%)
Alignment : Split accross interleaves
Interleave, duration : 40 ms (1.00 video frame)
Interleave, preload duration : 500 ms


Blue Dragon: Tenkai no Sichi Ryu (51 episodis + opening + BSO) (~12 GB):
Imatge
pass: animelliure
Per descarregar obrir el Click 'n' Load amb jdownloader.
 
Avatar de l’usuari
david80scat
Sushinchu
Sushinchu
Entrades: 436
Membre des de: dv. 05 abr. 2013, 15:14

Re: [MEGA] Blue Dragon: Tenkai no Sichi Ryu (51/51) (DVBrip)

dj. 18 feb. 2016, 00:39

Moltes gràcies per aquesta repujada. Descarregant...
Creu amb les senyals!
 
cloudsnake861
Arashinchu
Arashinchu
Entrades: 105
Membre des de: dt. 21 oct. 2014, 14:32

Re: [MEGA] Blue Dragon: Tenkai no Sichi Ryu (51/51) (DVBrip)

dj. 18 feb. 2016, 11:49

Muchas gracias!
 
Avatar de l’usuari
david80scat
Sushinchu
Sushinchu
Entrades: 436
Membre des de: dv. 05 abr. 2013, 15:14

Re: [MEGA] Blue Dragon: Tenkai no Sichi Ryu (51/51) (DVBrip)

dl. 29 feb. 2016, 19:23

Se sao si està previst realitzar algun projecte d'aquesta sèrie en 1080p o 720p com la 1a temporada?
Creu amb les senyals!

Qui està connectat

Usuaris navegant en aquest fòrum: Irthan i 8 visitants