Anime i manga en català

Moderadors: Steve Maister, wachimiro, Bilkoff

 
Avatar de l’usuari
Bilkoff
Moderadors
Moderadors
Entrades: 807
Membre des de: dt. 05 oct. 2004, 19:22
Ubicació: Borriana

Dragon Ball Z: la resurrecció d'en Freezer

ds. 18 juny 2016, 19:37

Dragon Ball Z: la resurrecció d'en Freezer
ドラゴンボールZ 復活の「F」 Doragon Bōru Zetto: Fukkatsu no Efu

Imatge


ANY: 2015
DURACIÓ: 93 min.
DIRECTOR: Tadayoshi Yamamuro
GUIO: Akira Toriyama
MÚSICA: Norihito Sumitomo
PRODUCTOR: Hashimoto Kunio
SINOPSIS: "Tras la muerte de Freezer y su padre King Cold, Sórbet, el primer oficial de la tercera región estelar, queda a cargo del ejército de Freezer. Un día decide ir a la Tierra para resucitar a Freezer y elige al soldado Tagoma para que lo acompañe. Estos le arrebatan las Bolas del Dragón a Pílaf y su banda, invocando a Shenlong y le pide que resucite al Emperador Freezer. Su deseo se cumple y este sale del capullo que lo tenían los Ángeles del infierno y cae en la Tierra partido en pedazos. Sorbet y Tagoma toman los pedazos de su jefe y los llevan a la nave para ponerlos en una cámara de avivamiento y se van del planeta. Freezer mientras se regenera, comienza a recordar su derrota ante Goku y Trunks del Futuro, hasta que despierta totalmente restaurado. Sórbet le dice que Goku se ha vuelto tan fuerte que fue capaz de derrotar a Majin Boo. Freezer se sorprende, pero revela que todavía tiene un gran poder oculto y que entrenando durante 4 meses, podría sacarlo para así poder vengarse de los 2 Super Saiyajin que lo derrotaron. Luego de 4 meses, Freezer invade la Tierra con su nuevo ejército de alrededor de 1.000 soldados y luchan contra los Guerreros Z. Freezer les dice que gracias a su entrenamiento ha logrado alcanzar una gran evolución (llamada Golden Freezer por el mismo) Pero además , Goku y Vegeta han alcanzado una nueva transformación gracias al entrenamiento de Wiss."

Contenidor: mkv.
Formats: x264, dts i srt.
Àudio: Japonès, castellà, català i basc.
Subtítols: Castellà, català, i basc.
Qualitat: Rip del blu-ray original.
Mida total: 4'37 Gb (1DVD).

Report Mediainfo
General
Unique ID                   : 197967914310601917245810699265153005711 (0x94EF3BC16788FCC2B6BE9A73C5F1788F)
Complete name               : E:\Dragon Ball Z La resurreció de F.mkv
Format                      : Matroska
Format version              : Version 4 / Version 2
File size                   : 4.37 GiB
Duration                    : 1h 40mn
Overall bit rate            : 6 207 Kbps
Movie name                  : Dragon Ball Z: Doragon bôru Z - Fukkatsu no 'F'
Encoded date                : UTC 2016-06-10 11:23:57
Writing application         : mkvmerge v9.2.0 ('Photograph') 64bit
Writing library             : libebml v1.3.3 + libmatroska v1.4.4
DURATION                    : 01:33:14.505000000
NUMBER_OF_FRAMES            : 1089
NUMBER_OF_BYTES             : 38519
_STATISTICS_WRITING_APP     : mkvmerge v9.2.0 ('Photograph') 64bit
_STATISTICS_WRITING_DATE_UT : 2016-06-10 11:23:57
_STATISTICS_TAGS            : BPS DURATION NUMBER_OF_FRAMES NUMBER_OF_BYTES

Video
ID                          : 1
Format                      : AVC
Format/Info                 : Advanced Video Codec
Format profile              : High 10@L5.1
Format settings, CABAC      : Yes
Format settings, ReFrames   : 16 frames
Codec ID                    : V_MPEG4/ISO/AVC
Duration                    : 1h 40mn
Bit rate                    : 3 011 Kbps
Nominal bit rate            : 3 182 Kbps
Width                       : 1 920 pixels
Height                      : 1 080 pixels
Display aspect ratio        : 16:9
Frame rate mode             : Constant
Frame rate                  : 23.976 fps
Color space                 : YUV
Chroma subsampling          : 4:2:0
Bit depth                   : 10 bits
Scan type                   : Progressive
Bits/(Pixel*Frame)          : 0.061
Stream size                 : 2.12 GiB (49%)
Writing library             : x264 core 148 r2692 64f4e24
Encoding settings           : cabac=1 / ref=16 / deblock=1:1:1 / analyse=0x3:0x133 / me=umh / subme=10 / psy=1 / psy_rd=0.40:0.00 / mixed_ref=1 / me_range=24 / chroma_me=1 / trellis=2 / 8x8dct=1 / cqm=0 / deadzone=21,11 / fast_pskip=1 / chroma_qp_offset=-2 / threads=12 / lookahead_threads=3 / sliced_threads=0 / nr=0 / decimate=1 / interlaced=0 / bluray_compat=0 / constrained_intra=0 / bframes=10 / b_pyramid=2 / b_adapt=2 / b_bias=0 / direct=3 / weightb=1 / open_gop=0 / weightp=2 / keyint=240 / keyint_min=23 / scenecut=40 / intra_refresh=0 / rc_lookahead=60 / rc=2pass / mbtree=1 / bitrate=3182 / ratetol=1.0 / qcomp=0.60 / qpmin=0 / qpmax=81 / qpstep=4 / cplxblur=20.0 / qblur=0.5 / ip_ratio=1.40 / aq=1:0.60
Default                     : Yes
Forced                      : No

Audio #1
ID                          : 2
Format                      : DTS
Format/Info                 : Digital Theater Systems
Mode                        : 16
Format settings, Endianness : Big
Codec ID                    : A_DTS
Duration                    : 1h 40mn
Bit rate mode               : Constant
Bit rate                    : 768 Kbps
Channel(s)                  : 6 channels
Channel positions           : Front: L C R, Side: L R, LFE
Sampling rate               : 48.0 KHz
Bit depth                   : 24 bits
Compression mode            : Lossy
Stream size                 : 554 MiB (12%)
Language                    : Catalan
Default                     : Yes
Forced                      : No

Audio #2
ID                          : 3
Format                      : DTS
Format/Info                 : Digital Theater Systems
Mode                        : 16
Format settings, Endianness : Big
Codec ID                    : A_DTS
Duration                    : 1h 40mn
Bit rate mode               : Constant
Bit rate                    : 768 Kbps
Channel(s)                  : 6 channels
Channel positions           : Front: L C R, Side: L R, LFE
Sampling rate               : 48.0 KHz
Bit depth                   : 24 bits
Compression mode            : Lossy
Stream size                 : 554 MiB (12%)
Language                    : Spanish
Default                     : No
Forced                      : No

Audio #3
ID                          : 4
Format                      : DTS
Format/Info                 : Digital Theater Systems
Mode                        : 16
Format settings, Endianness : Big
Codec ID                    : A_DTS
Duration                    : 1h 40mn
Bit rate mode               : Constant
Bit rate                    : 768 Kbps
Channel(s)                  : 6 channels
Channel positions           : Front: L C R, Side: L R, LFE
Sampling rate               : 48.0 KHz
Bit depth                   : 24 bits
Compression mode            : Lossy
Stream size                 : 554 MiB (12%)
Language                    : Basque
Default                     : No
Forced                      : No

Audio #4
ID                          : 5
Format                      : DTS
Format/Info                 : Digital Theater Systems
Mode                        : 16
Format settings, Endianness : Big
Codec ID                    : A_DTS
Duration                    : 1h 40mn
Bit rate mode               : Constant
Bit rate                    : 768 Kbps
Channel(s)                  : 6 channels
Channel positions           : Front: L C R, Side: L R, LFE
Sampling rate               : 48.0 KHz
Bit depth                   : 24 bits
Compression mode            : Lossy
Stream size                 : 554 MiB (12%)
Language                    : Japanese
Default                     : No
Forced                      : No

Text #1
ID                          : 6
Format                      : UTF-8
Codec ID                    : S_TEXT/UTF8
Codec ID/Info               : UTF-8 Plain Text
Title                       : forced
Language                    : Spanish
Default                     : Yes
Forced                      : No

Text #2
ID                          : 7
Format                      : UTF-8
Codec ID                    : S_TEXT/UTF8
Codec ID/Info               : UTF-8 Plain Text
Language                    : Spanish
Default                     : No
Forced                      : No

Text #3
ID                          : 8
Format                      : UTF-8
Codec ID                    : S_TEXT/UTF8
Codec ID/Info               : UTF-8 Plain Text
Title                       : forced
Language                    : Catalan
Default                     : No
Forced                      : No

Text #4
ID                          : 9
Format                      : UTF-8
Codec ID                    : S_TEXT/UTF8
Codec ID/Info               : UTF-8 Plain Text
Language                    : Catalan
Default                     : No
Forced                      : No

Text #5
ID                          : 10
Format                      : UTF-8
Codec ID                    : S_TEXT/UTF8
Codec ID/Info               : UTF-8 Plain Text
Title                       : forced
Language                    : Basque
Default                     : No
Forced                      : No

Text #6
ID                          : 11
Format                      : UTF-8
Codec ID                    : S_TEXT/UTF8
Codec ID/Info               : UTF-8 Plain Text
Language                    : Basque
Default                     : No
Forced                      : No

Menu
00:00:00.000                : en:00:00:00.000
00:08:07.986                : en:00:08:07.986
00:21:55.188                : en:00:21:55.188
00:33:16.993                : en:00:33:16.993
00:44:19.156                : en:00:44:19.156
00:56:16.872                : en:00:56:16.872
01:09:45.822                : en:01:09:45.822
01:25:01.595                : en:01:25:01.595


Descàrrega
1fichier
yandex
 
Avatar de l’usuari
xagasa
Chishinchu
Chishinchu
Entrades: 3555
Membre des de: dl. 26 maig 2014, 10:16
Ubicació: Planeta M2

Re: Dragon Ball Z: la resurrecció d'en Freezer

ds. 18 juny 2016, 20:39

Gracies mirarem aquesta versio bluray amb audio dts.
Moltes gracies.

Edito:
La acabo de mirar i s'ha de dir que exelent color i audio.
Lo que m'ha agradat tamé que hi ha els subtituls de la canço
den Freezer.

Una Pregunta:

¿Posaras els extres que porta la edició Bluray?

Salutacions
 
Avatar de l’usuari
Bilkoff
Moderadors
Moderadors
Entrades: 807
Membre des de: dt. 05 oct. 2004, 19:22
Ubicació: Borriana

Re: Dragon Ball Z: la resurrecció d'en Freezer

dg. 19 juny 2016, 05:54

xagasa ha escrit:
Una Pregunta:

¿Posaras els extres que porta la edició Bluray?

Salutacions

No, ja no els tinc
 
Avatar de l’usuari
MarshmallowMan
Sanshinchu
Sanshinchu
Entrades: 204
Membre des de: dv. 19 feb. 2016, 23:30

Re: Dragon Ball Z: la resurrecció d'en Freezer

dg. 19 juny 2016, 19:54

Gracies Bilkoff per una altre release d´aquesta peli. Me la baixo tambè. :) ¡Salutacions! :adeu:
 
Avatar de l’usuari
ovichan
Usuari
Usuari
Entrades: 21
Membre des de: dl. 05 jul. 2010, 23:06

Re: Dragon Ball Z: la resurrecció d'en Freezer

dv. 24 juny 2016, 19:29

Hola, gracias por el aporte. Una pregunta, los dts son recodificados o son demuxed?? Lo digo porque parece que los dts son solo el core, y son lossy.

EDITO: mi comentario es sin ánimo de crítica, pero el core de un dts ofrece peor calidad sonora que un ac3 a 640 kbps.
 
mco234
Sanshinchu
Sanshinchu
Entrades: 304
Membre des de: dl. 10 oct. 2011, 23:32

Re: Dragon Ball Z: la resurrecció d'en Freezer

ds. 25 juny 2016, 14:18

Gracies per la versio.

Salutacions.

Qui està connectat

Usuaris navegant en aquest fòrum: No hi ha cap usuari registrat i 12 visitants