Anime i manga en català

Moderadors: Steve Maister, wachimiro, Bilkoff

 
Avatar de l’usuari
Bilkoff
Moderadors
Moderadors
Entrades: 819
Membre des de: dt. 05 oct. 2004, 19:22
Ubicació: Borriana

Lupin III: El castell de Cagliostro

ds. 18 juny 2016, 19:57

Lupin III: El castell de Cagliostro
ルパン三世 カリオストロの城 Rupan Sansei: Kariosutoro no Shiro

Imatge


ANY: 1979
DURACIÓ: 110 min.
DIRECTOR: Hayao Miyazaki
GUIO: Hayao Miyazaki (historia original) Haruya Yamazaki (script)
MÚSICA: Yuji Ohno
PRODUCTOR: Tetsuo Katayama
SINOPSIS: "La acción transcurre en el ficticio ducado de Cagliostro, un país pequeño que parece ser una conglomeración de varias regiones de Europa. El ducado es una tierra de montañas y de lagos, con una ciudad con un castillo y un acueducto romano aún en uso. El protector del ducado es la policía, que también tiene cualidades militares, y un grupo de asesinos llamados "sombras".
Al comienzo de la película Lupin y Jigen huyen después de robar el casino nacional de Mónaco, para luego descubrir que el dinero es falso. Los billetes son de una calidad muy alta y podían ser unas legendarias falsificaciones perfectas que han hecho estremecer las economías de naciones desde la invención del papel moneda. "

Contenidor: mkv.
Formats: x264, dts i srt.
Àudio: Japonès, castellà, català i basc.
Subtítols: Castellà, català, i basc.
Qualitat: Rip del blu-ray original.
Mida total: 7'95 Gb (1DVD-DL).

Report Mediainfo
General
Unique ID                   : 244626795174931563942930888161222815182 (0xB80968315403ED05A3221ED33E256DCE)
Complete name               : E:\YandexDisk\Lupin III The Castle of Cagliostro.mkv
Format                      : Matroska
Format version              : Version 4 / Version 2
File size                   : 7.95 GiB
Duration                    : 1h 39mn
Overall bit rate            : 11.4 Mbps
Encoded date                : UTC 2016-06-16 14:27:42
Writing application         : mkvmerge v9.2.0 ('Photograph') 64bit
Writing library             : libebml v1.3.3 + libmatroska v1.4.4
DURATION                    : 01:39:22.081000000
NUMBER_OF_FRAMES            : 869
NUMBER_OF_BYTES             : 33568
_STATISTICS_WRITING_APP     : mkvmerge v9.2.0 ('Photograph') 64bit
_STATISTICS_WRITING_DATE_UT : 2016-06-16 14:27:42
_STATISTICS_TAGS            : BPS DURATION NUMBER_OF_FRAMES NUMBER_OF_BYTES

Video
ID                          : 1
Format                      : AVC
Format/Info                 : Advanced Video Codec
Format profile              : High@L4.1
Format settings, CABAC      : Yes
Format settings, ReFrames   : 4 frames
Codec ID                    : V_MPEG4/ISO/AVC
Duration                    : 1h 39mn
Bit rate                    : 6 903 Kbps
Width                       : 1 920 pixels
Height                      : 1 080 pixels
Display aspect ratio        : 16:9
Frame rate mode             : Constant
Frame rate                  : 23.976 fps
Color space                 : YUV
Chroma subsampling          : 4:2:0
Bit depth                   : 8 bits
Scan type                   : Progressive
Bits/(Pixel*Frame)          : 0.139
Stream size                 : 4.65 GiB (58%)
Writing library             : x264 core 148 r2692 64f4e24
Encoding settings           : cabac=1 / ref=4 / deblock=1:1:1 / analyse=0x3:0x133 / me=umh / subme=10 / psy=1 / psy_rd=0.40:0.00 / mixed_ref=1 / me_range=24 / chroma_me=1 / trellis=2 / 8x8dct=1 / cqm=0 / deadzone=21,11 / fast_pskip=1 / chroma_qp_offset=-2 / threads=12 / lookahead_threads=3 / sliced_threads=0 / nr=0 / decimate=1 / interlaced=0 / bluray_compat=0 / constrained_intra=0 / bframes=10 / b_pyramid=2 / b_adapt=2 / b_bias=0 / direct=3 / weightb=1 / open_gop=0 / weightp=2 / keyint=240 / keyint_min=23 / scenecut=40 / intra_refresh=0 / rc_lookahead=60 / rc=2pass / mbtree=1 / bitrate=6903 / ratetol=1.0 / qcomp=0.60 / qpmin=0 / qpmax=69 / qpstep=4 / cplxblur=20.0 / qblur=0.5 / vbv_maxrate=62500 / vbv_bufsize=78125 / nal_hrd=none / filler=0 / ip_ratio=1.40 / aq=1:0.60
Default                     : Yes
Forced                      : No

Audio #1
ID                          : 2
Format                      : DTS
Format/Info                 : Digital Theater Systems
Mode                        : 16
Format settings, Endianness : Big
Codec ID                    : A_DTS
Duration                    : 1h 39mn
Bit rate mode               : Constant
Bit rate                    : 1 509 Kbps
Channel(s)                  : 2 channels
Channel positions           : Front: L R
Sampling rate               : 48.0 KHz
Bit depth                   : 24 bits
Compression mode            : Lossy
Stream size                 : 1.05 GiB (13%)
Language                    : Catalan
Default                     : Yes
Forced                      : No

Audio #2
ID                          : 3
Format                      : DTS
Format/Info                 : Digital Theater Systems
Mode                        : 16
Format settings, Endianness : Big
Codec ID                    : A_DTS
Duration                    : 1h 39mn
Bit rate mode               : Constant
Bit rate                    : 1 509 Kbps
Channel(s)                  : 2 channels
Channel positions           : Front: L R
Sampling rate               : 48.0 KHz
Bit depth                   : 24 bits
Compression mode            : Lossy
Stream size                 : 1.05 GiB (13%)
Language                    : Spanish
Default                     : No
Forced                      : No

Audio #3
ID                          : 4
Format                      : DTS
Format/Info                 : Digital Theater Systems
Mode                        : 16
Format settings, Endianness : Big
Codec ID                    : A_DTS
Duration                    : 1h 39mn
Bit rate mode               : Constant
Bit rate                    : 1 509 Kbps
Channel(s)                  : 6 channels
Channel positions           : Front: L C R, Side: L R, LFE
Sampling rate               : 48.0 KHz
Bit depth                   : 24 bits
Compression mode            : Lossy
Stream size                 : 1.05 GiB (13%)
Language                    : Japanese
Default                     : No
Forced                      : No

Text #1
ID                          : 5
Format                      : UTF-8
Codec ID                    : S_TEXT/UTF8
Codec ID/Info               : UTF-8 Plain Text
Title                       : forced
Language                    : Catalan
Default                     : Yes
Forced                      : No

Text #2
ID                          : 6
Format                      : UTF-8
Codec ID                    : S_TEXT/UTF8
Codec ID/Info               : UTF-8 Plain Text
Title                       : forced
Language                    : Spanish
Default                     : No
Forced                      : No

Text #3
ID                          : 7
Format                      : UTF-8
Codec ID                    : S_TEXT/UTF8
Codec ID/Info               : UTF-8 Plain Text
Language                    : Spanish
Default                     : No
Forced                      : No

Menu
00:00:00.000                : en:00:00:00.000
00:04:34.399                : en:00:04:34.399
00:15:43.568                : en:00:15:43.568
00:25:00.874                : en:00:25:00.874
00:31:34.017                : en:00:31:34.017
00:40:32.055                : en:00:40:32.055
00:49:08.070                : en:00:49:08.070
00:57:22.564                : en:00:57:22.564
01:04:42.003                : en:01:04:42.003
01:12:07.448                : en:01:12:07.448
01:20:07.928                : en:01:20:07.928
01:33:34.734                : en:01:33:34.734


Descàrrega
1fichier
yandex
 
Avatar de l’usuari
xagasa
Chishinchu
Chishinchu
Entrades: 3784
Membre des de: dl. 26 maig 2014, 10:16
Ubicació: Planeta M2

Re: Lupin III: El castell de Cagliostro

ds. 18 juny 2016, 20:24

Caram que be un clasic bonisim de lupin.
Moltes gracies.
 
Avatar de l’usuari
MarshmallowMan
Sanshinchu
Sanshinchu
Entrades: 204
Membre des de: dv. 19 feb. 2016, 23:30

Re: Lupin III: El castell de Cagliostro

dg. 19 juny 2016, 20:23

Gracies per aquesta peli d´en Lupin III. Aquest estiu me la veuré sens falta. :pizza: :tv:
 
Avatar de l’usuari
HoT.FuN
Sushinchu
Sushinchu
Entrades: 482
Membre des de: ds. 28 set. 2013, 01:08
Ubicació: Institut Shohoku

Re: Lupin III: El castell de Cagliostro

ds. 25 juny 2016, 15:08

uoo gracies Bil! aquesta la tenia pendent per fer i pujar, mas tret treball de sobre! xD
ImatgeImatge
Imatge
 
Avatar de l’usuari
chonas117
Usuari
Usuari
Entrades: 5
Membre des de: dt. 20 jul. 2010, 10:41

Re: Lupin III: El castell de Cagliostro

dl. 08 ago. 2016, 09:55

Moltes gracies per el vostre treball.

Qui està connectat

Usuaris navegant en aquest fòrum: terminator i 3 visitants