Anime i manga en català

Moderadors: Steve Maister, wachimiro, Bilkoff

 
Avatar de l’usuari
HoT.FuN
Sushinchu
Sushinchu
Entrades: 463
Membre des de: ds. 28 set. 2013, 01:08
Ubicació: Institut Shohoku

[MEGA] El Recuerdo de Marnie [BDRIP 1080p] [GHIBLI]

dl. 08 ago. 2016, 14:37

Imatge
Título original: Omoide no Marnie (El Recuerdo de Marnie)
Año: 2014
Duración: 103 min.
País: Japón
Director: Hiromasa Yonebayashi
Guión: Niwa Keiko, Ando Masahi (Libro: Joan G. Robinson)
Música: Takatsugu Muramatsu
Fotografía: Animation
Reparto: Animation
Productora: Studio Ghibli
Género: Animación. Drama. Fantástico | Amistad. Adolescencia. Vida rural

Web Oficial: http://marnie.jp/index.html

Sinopsis:
Anna es una chica solitaria, sin amigos, que vive con sus padres adoptivos. Un día es enviada con el señor y la señora Pegg. Allí, donde se extienden las dunas de arena, conoce a una chica llamada Marnie, quien pronto se convertirá en su mejor amiga. Habiendo aprendido muchas cosas sobre la amistad, Anna se dará cuenta de que Marnie no es quien parece...

Premios:
2015: Premios Oscar: Nominada a Mejor largometraje de animación
2015: Premios Annie: 3 nominaciones incluyendo Mejor película independiente
2015: Festival de Gijón: Sección oficial largometrajes de animación


Mediainfo:
Spoiler: mostra
Complete name : El Recuerdo de Marnie [2014] [BDrip m-1080p] [1980C373].mkv
Format : Matroska
Format version : Version 4 / Version 2
File size : 3.90 GiB
Duration : 1 h 42 min
Overall bit rate : 5 437 kb/s
Movie name : By HoT.FuN
Encoded date : UTC 2016-08-01 10:48:07
Writing application : mkvmerge v9.0.1 ('Obstacles') 64bit
Writing library : libebml v1.3.3 + libmatroska v1.4.4

Video
ID : 1
Format : AVC
Format/Info : Advanced Video Codec
Format profile : Main@L4.1
Format settings, CABAC : Yes
Format settings, ReFrames : 4 frames
Codec ID : V_MPEG4/ISO/AVC
Duration : 1 h 42 min
Bit rate : 4 500 kb/s
Width : 1 920 pixels
Height : 1 036 pixels
Display aspect ratio : 1.85:1
Frame rate mode : Constant
Frame rate : 23.976 (24000/1001) FPS
Color space : YUV
Chroma subsampling : 4:2:0
Bit depth : 8 bits
Scan type : Progressive
Bits/(Pixel*Frame) : 0.094
Stream size : 3.26 GiB (83%)
Writing library : x264 core 142 r2479 dd79a61
Encoding settings : cabac=1 / ref=1 / deblock=1:0:0 / analyse=0x1:0x111 / me=hex / subme=2 / psy=1 / psy_rd=1.00:0.00 / mixed_ref=0 / me_range=16 / chroma_me=1 / trellis=0 / 8x8dct=0 / cqm=0 / deadzone=21,11 / fast_pskip=1 / chroma_qp_offset=0 / threads=36 / lookahead_threads=8 / sliced_threads=0 / nr=0 / decimate=1 / interlaced=0 / bluray_compat=0 / constrained_intra=0 / bframes=3 / b_pyramid=2 / b_adapt=1 / b_bias=0 / direct=1 / weightb=1 / open_gop=0 / weightp=1 / keyint=240 / keyint_min=24 / scenecut=40 / intra_refresh=0 / rc_lookahead=10 / rc=abr / mbtree=1 / bitrate=4500 / ratetol=1.0 / qcomp=0.60 / qpmin=0 / qpmax=69 / qpstep=4 / vbv_maxrate=50000 / vbv_bufsize=62500 / nal_hrd=none / filler=0 / ip_ratio=1.40 / aq=1:1.00
Default : Yes
Forced : No
Color range : Limited
Color primaries : BT.709
Transfer characteristics : BT.709
Matrix coefficients : BT.709

Audio #1
ID : 2
Format : AC-3
Format/Info : Audio Coding 3
Mode extension : CM (complete main)
Format settings, Endianness : Big
Codec ID : A_AC3
Duration : 1 h 42 min
Bit rate mode : Constant
Bit rate : 448 kb/s
Channel(s) : 5 channels
Channel positions : Front: L C R, Side: L R
Sampling rate : 48.0 kHz
Frame rate : 31.250 FPS (1536 spf)
Compression mode : Lossy
Delay relative to video : -59 ms
Stream size : 329 MiB (8%)
Title : Castellano AC3 448 Kbps
Language : Spanish
Default : Yes
Forced : No

Audio #2
ID : 3
Format : AC-3
Format/Info : Audio Coding 3
Mode extension : CM (complete main)
Format settings, Endianness : Big
Codec ID : A_AC3
Duration : 1 h 42 min
Bit rate mode : Constant
Bit rate : 448 kb/s
Channel(s) : 5 channels
Channel positions : Front: L C R, Side: L R
Sampling rate : 48.0 kHz
Frame rate : 31.250 FPS (1536 spf)
Compression mode : Lossy
Delay relative to video : -83 ms
Stream size : 329 MiB (8%)
Title : Japones AC3 448 Kbps
Language : Japanese
Default : No
Forced : No

Text #1
ID : 4
Format : ASS
Codec ID : S_TEXT/ASS
Codec ID/Info : Advanced Sub Station Alpha
Duration : 1 h 37 min
Bit rate : 5 b/s
Count of elements : 63
Compression mode : Lossless
Stream size : 4.02 KiB (0%)
Title : Castellano Forzados [ASS]
Language : Spanish
Default : Yes
Forced : Yes

Text #2
ID : 5
Format : ASS
Codec ID : S_TEXT/ASS
Codec ID/Info : Advanced Sub Station Alpha
Duration : 1 h 42 min
Bit rate : 73 b/s
Count of elements : 1115
Compression mode : Lossless
Stream size : 54.8 KiB (0%)
Title : Castellano Completos [ASS]
Language : Spanish
Default : No
Forced : No

Text #3
ID : 6
Format : UTF-8
Codec ID : S_TEXT/UTF8
Codec ID/Info : UTF-8 Plain Text
Duration : 1 h 28 min
Bit rate : 0 b/s
Count of elements : 5
Stream size : 100 Bytes (0%)
Title : Castellano Forzados [SRT]
Language : Spanish
Default : No
Forced : Yes

Text #4
ID : 7
Format : UTF-8
Codec ID : S_TEXT/UTF8
Codec ID/Info : UTF-8 Plain Text
Duration : 1 h 38 min
Bit rate : 39 b/s
Count of elements : 1058
Stream size : 28.3 KiB (0%)
Title : Castellano Completos [SRT]
Language : Spanish
Default : No
Forced : No

Text #5
ID : 8
Format : UTF-8
Codec ID : S_TEXT/UTF8
Codec ID/Info : UTF-8 Plain Text
Duration : 1 h 42 min
Bit rate : 36 b/s
Count of elements : 1068
Stream size : 27.3 KiB (0%)
Title : English Completos [SRT]
Language : English
Default : No
Forced : No

Menu
00:00:00.000 : en:00:00:00.000
00:08:36.057 : en:00:08:36.057
00:18:58.512 : en:00:18:58.512
00:28:24.202 : en:00:28:24.202
00:34:31.069 : en:00:34:31.069
00:42:21.539 : en:00:42:21.539
00:50:59.223 : en:00:50:59.223
00:57:21.063 : en:00:57:21.063
01:06:36.784 : en:01:06:36.784
01:14:01.228 : en:01:14:01.228
01:24:00.369 : en:01:24:00.369
01:36:36.499 : en:01:36:36.499


Información Básica
Fuente de vídeo: Blu-Ray 1080p
Contenedor: mkv
Códec: x264 8 Bits
Tamaño: 3.90 GB
Tasa de Bits total: 5 437 Kbps
Resolución: 1920x1036
Audio 1: Castellano AC3 448 Kbps 5 Channels
Audio 2: Japonés AC3 448 Kbps 5 Channels
Montador, Sincronizador y Uploader: HoT.FuN
Subtitulos: Castellano Forzados [ASS+SRT], Castellano Completos [ASS+SRT], English Compeltos [SRT] By HoT.FuN
Nota: Esta peli no esta doblada al Català por eso no esta dicho audio.


Capturas
Spoiler: mostra
Imatge
Imatge
Imatge


LINK DE DESCARGA 8 BITS
Imatge
↓↓↓
LINKS DE DESCARGA 8 BITS, DISFRUTAD
MIRROR 1
Imatge
MIRROR 2
Imatge
Nota: Los 2 Links son el mismo pero con distinta web encryptadora ^^

TUTORIAL PARA LA DESCARGA
Primero de todo tener el JDowloader (V2) o Mipony abierto, y cuando estés en la página ncrypt.in o Subedlc.com, tendrás que resolver un captcha (probablemente un puzzle) y después, hacer click en el botón CNL2 o Clic'N'Load
Si hacéis click en Permitir los links de MEGA se agregarán automáticamente a JDowloader (También podéis usar Mipony)
Y luego Con WinRAR 5 descomprimís los archivos usando la contraseña nombrada abajo.

Imatge
=> "HoT.FuN" <=
Sin las comillas ni las flechas :D Y Escribid exactamente = la contraseña, con las mayúsculas y minúsculas u os dará error!

Para comprobar si la película se ha descargado bien podéis usar este programa RapidCRC. Usa los números que pongo en el nombre de la película para decir si se ha bajado correctamente o no ^^
HoT.FuN l’ha editat per darrera vegada el dia: dg. 30 jul. 2017, 17:14, en total s’ha editat 1 vegada.
ImatgeImatge
Imatge
 
Avatar de l’usuari
HoT.FuN
Sushinchu
Sushinchu
Entrades: 463
Membre des de: ds. 28 set. 2013, 01:08
Ubicació: Institut Shohoku

Re: [MEGA] El Recuerdo de Marnie [BDRIP 1080p] [GHIBLI]

dl. 08 ago. 2016, 15:28

Si Alguien le apetece hacer los Subs Completos en Català, que los haga, no tengo ningun reparo en ponerlos en el post con su nick ^^
 
Avatar de l’usuari
MarshmallowMan
Arashinchu
Arashinchu
Entrades: 176
Membre des de: dv. 19 feb. 2016, 23:30

Re: [MEGA] El Recuerdo de Marnie [BDRIP 1080p] [GHIBLI]

dl. 08 ago. 2016, 18:47

Gracias por otra de Ghibli HoT.FuN. :yeah: Vaya buena colección que me estoy agenciando. :D ¡Saludos!
 
Maik102
Usuari
Usuari
Entrades: 6
Membre des de: ds. 16 jul. 2016, 13:43

Re: [MEGA] El Recuerdo de Marnie [BDRIP 1080p] [GHIBLI]

ds. 13 ago. 2016, 00:44

el audio se escucha un poco raro, como con eco, es asi o esque se me ha descargado mal?
 
Avatar de l’usuari
HoT.FuN
Sushinchu
Sushinchu
Entrades: 463
Membre des de: ds. 28 set. 2013, 01:08
Ubicació: Institut Shohoku

Re: [MEGA] El Recuerdo de Marnie [BDRIP 1080p] [GHIBLI]

dg. 14 ago. 2016, 02:37

No se que quieres decir, en mi pc se escucha bien o.o
ImatgeImatge
Imatge
 
Avatar de l’usuari
†Nami†
Arashinchu
Arashinchu
Entrades: 93
Membre des de: dt. 13 maig 2008, 12:01

Re: [MEGA] El Recuerdo de Marnie [BDRIP 1080p] [GHIBLI]

dc. 17 ago. 2016, 14:34

¡Muchas gracias por la peli!

La verdad es que en los trailers que vi hace tiempo, me pareció intuir otra cosa entre Anna y Marnie xD. Pero bueno, igualmente me ha encantado~

Y yo los audios los escucho bien. Ni eco ni nada raro.
 
Dharm
Usuari
Usuari
Entrades: 1
Membre des de: dg. 04 set. 2016, 15:59

Re: [MEGA] El Recuerdo de Marnie [BDRIP 1080p] [GHIBLI]

dg. 04 set. 2016, 16:06

Muchas gracias por este fantástico trabajo. saludos cordiales.
 
SDack
Usuari
Usuari
Entrades: 1
Membre des de: ds. 24 set. 2016, 01:59

Re: [MEGA] El Recuerdo de Marnie [BDRIP 1080p] [GHIBLI]

ds. 24 set. 2016, 02:01

Gracias por el aporte!!
 
Avatar de l’usuari
HoT.FuN
Sushinchu
Sushinchu
Entrades: 463
Membre des de: ds. 28 set. 2013, 01:08
Ubicació: Institut Shohoku

Re: [MEGA] El Recuerdo de Marnie [BDRIP 1080p] [GHIBLI]

ds. 24 set. 2016, 13:00

A vosotros por comentar ^^
ImatgeImatge
Imatge
 
Avatar de l’usuari
GATOXMIO
Usuari
Usuari
Entrades: 1
Membre des de: dt. 22 nov. 2016, 11:07

Re: [MEGA] El Recuerdo de Marnie [BDRIP 1080p] [GHIBLI]

dt. 22 nov. 2016, 11:13

aporte impresionante, gracias por tu esfuerzo. estoy bajándome todas las peliculas de ghibli en BD en este momento, y me parece que van a ser todas de TUS aportes :)
 
Avatar de l’usuari
Frydivx
Sanshinchu
Sanshinchu
Entrades: 235
Membre des de: dc. 23 maig 2012, 17:59

Re: [MEGA] El Recuerdo de Marnie [BDRIP 1080p] [GHIBLI]

dt. 22 nov. 2016, 13:50

Per la pàgina de Mecanoscrit han pujat la de "El niño y la Bestia" doblada en català, podries fer una release d'aquesta peli incloent-hi també el castellà i V.O.
He pogut extreure el àudio del arxiu, per si t'interessa (qualitat mp3, 2 ch. 320kb/s, 48.000 Khz), el video on anava incrustat estava a 23.976 FPS (més d'una pel·li en català me la he trobat en 25 FPS, o sigui que encara millor per la versió domèstica).
Ahí te lo dejo, jajaja.

Salut!
 
Avatar de l’usuari
jordi.sansa
Sanshinchu
Sanshinchu
Entrades: 351
Membre des de: dv. 19 ago. 2011, 17:35

Re: [MEGA] El Recuerdo de Marnie [BDRIP 1080p] [GHIBLI]

dv. 25 nov. 2016, 19:47

Moltes gràcies hot fun!
 
Avatar de l’usuari
HoT.FuN
Sushinchu
Sushinchu
Entrades: 463
Membre des de: ds. 28 set. 2013, 01:08
Ubicació: Institut Shohoku

Re: [MEGA] El Recuerdo de Marnie [BDRIP 1080p] [GHIBLI]

dg. 27 nov. 2016, 17:21

De res ^^ a vosaltres per comentar, i ja no fa falta que et digui res Fryd, sembla que ja has vist el post del Nen i la bestia ^^
ImatgeImatge
Imatge
 
Avatar de l’usuari
Frydivx
Sanshinchu
Sanshinchu
Entrades: 235
Membre des de: dc. 23 maig 2012, 17:59

Re: [MEGA] El Recuerdo de Marnie [BDRIP 1080p] [GHIBLI]

dl. 28 nov. 2016, 12:21

HoT.FuN ha escrit:
De res ^^ a vosaltres per comentar, i ja no fa falta que et digui res Fryd, sembla que ja has vist el post del Nen i la bestia ^^


Si jajaja!
En quan a anime en català mai hauria de dubtar en que aquí sortirà.
Ja me l'he descarregat i tot! :profident: :yeah:

Salut!
 
Torposoplo
Usuari
Usuari
Entrades: 1
Membre des de: dl. 03 abr. 2017, 19:02

Re: [MEGA] El Recuerdo de Marnie [BDRIP 1080p] [GHIBLI]

dl. 03 abr. 2017, 19:08

Vaya. Con las ganas que tengo de verla y he llegado tarde. Me dice que los enlaces están caídos. Gracias igualmente por tu trabajo.

Qui està connectat

Usuaris navegant en aquest fòrum: No hi ha cap usuari registrat i 1 visitant