Anime i manga en català

Moderadors: Steve Maister, wachimiro, Bilkoff

 
Avatar de l’usuari
HoT.FuN
Sushinchu
Sushinchu
Entrades: 470
Membre des de: ds. 28 set. 2013, 01:08
Ubicació: Institut Shohoku

[MEGA] El Viento se Levanta [BDRIP 1080p] [GHIBLI]

dl. 08 ago. 2016, 14:51

Imatge
Título original: Kaze tachinu (The Wind Rises)
Año: 2013
Duración: 125 min.
País: Japón
Director: Hayao Miyazaki
Guión: Hayao Miyazaki (Cómic: Hayao Miyazaki. Novela: Tatsuo Hori)
Música: Joe Hisaishi
Fotografía: Atsushi Okui
Reparto: Animation
Productora: Studio Ghibli
Género: Animación. Drama | Biográfico. Aviones. Años 20. Años 30. Manga. Terremotos

Web Oficial: http://www.elvientoselevanta.es/

Sinopsis:
Jiro, que sueña con volar y diseñar hermosos aviones, se inspira en el famoso diseñador aeronáutico italiano Caproni. Corto de vista desde niño y por ello incapaz de volar, se une a la división aeronáutica de una compañía de ingeniería en 1927. Su genio pronto es reconocido y se convierte en uno de los más prestigiosos diseñadores aeronáuticos. Film biográfico que recrea hechos históricos que marcaron su vida, como el terremoto de Kanto de 1923, la Gran Depresión, la epidemia de tuberculosis y la entrada de Japón en la Segunda Guerra Mundial.

Premios:
2013: Premios Oscar: Nominada a Mejor película de animación
2013: Globos de Oro: Nominada a mejor película extranjera
2013: National Board of Review (NBR): Mejor película de animación
2013: Círculo de Críticos de Nueva York: Mejor película de animación
2013: Asociación de Críticos de Chicago: Mejor película de animación
2013: Asociación de críticos de Los Angeles: 2ª Mejor película de animación
2013: Critics Choice: Nominada a Mejor película de animación
2013: Premios Annie: Mejor guión. Nominada a Mejor película
2013: Satellite Awards: Mejor película de animación
2013: Festival de Venecia: Sección oficial largometrajes a concurso


Mediainfo:
Spoiler: mostra
Complete name : El Viento se Levanta [2013] [BDrip m-1080p] [EDA79C12].mkv
Format : Matroska
Format version : Version 4 / Version 2
File size : 3.92 GiB
Duration : 2 h 6 min
Overall bit rate : 4 434 kb/s
Movie name : By HoT.HuN
Encoded date : UTC 2016-07-31 14:40:10
Writing application : mkvmerge v9.0.1 ('Obstacles') 64bit
Writing library : libebml v1.3.3 + libmatroska v1.4.4
Cover : Yes
Attachments : accid__.ttf / 00359.TTF / 00555.TTF / cover.png

Video
ID : 1
Format : AVC
Format/Info : Advanced Video Codec
Format profile : Main@L4
Format settings, CABAC : Yes
Format settings, ReFrames : 1 frame
Codec ID : V_MPEG4/ISO/AVC
Duration : 2 h 6 min
Bit rate : 3 755 kb/s
Width : 1 920 pixels
Height : 1 080 pixels
Display aspect ratio : 16:9
Frame rate mode : Constant
Frame rate : 23.976 (24000/1001) FPS
Color space : YUV
Chroma subsampling : 4:2:0
Bit depth : 8 bits
Scan type : Progressive
Bits/(Pixel*Frame) : 0.076
Stream size : 3.32 GiB (85%)
Title : El Viento Se Levanta
Writing library : x264 core 129
Encoding settings : cabac=1 / ref=1 / deblock=1:0:0 / analyse=0x1:0x131 / me=dia / subme=2 / psy=1 / psy_rd=1.00:0.00 / mixed_ref=0 / me_range=16 / chroma_me=1 / trellis=0 / 8x8dct=0 / cqm=0 / deadzone=21,11 / fast_pskip=1 / chroma_qp_offset=0 / threads=4 / lookahead_threads=1 / sliced_threads=0 / nr=0 / decimate=1 / interlaced=0 / bluray_compat=0 / constrained_intra=0 / bframes=0 / weightp=2 / keyint=250 / keyint_min=25 / scenecut=40 / intra_refresh=0 / rc_lookahead=40 / rc=abr / mbtree=1 / bitrate=3755 / ratetol=1.0 / qcomp=0.60 / qpmin=10 / qpmax=51 / qpstep=4 / ip_ratio=1.41 / aq=1:1.00
Language : Japanese
Default : Yes
Forced : No

Audio #1
ID : 2
Format : AC-3
Format/Info : Audio Coding 3
Mode extension : CM (complete main)
Format settings, Endianness : Big
Codec ID : A_AC3
Duration : 2 h 6 min
Bit rate mode : Constant
Bit rate : 448 kb/s
Channel(s) : 2 channels
Channel positions : Front: L R
Sampling rate : 48.0 kHz
Frame rate : 31.250 FPS (1536 spf)
Compression mode : Lossy
Stream size : 405 MiB (10%)
Title : Castellano AC3 448 Kbps
Language : Spanish
Default : No
Forced : No

Audio #2
ID : 3
Format : AC-3
Format/Info : Audio Coding 3
Mode extension : CM (complete main)
Format settings, Endianness : Big
Codec ID : A_AC3
Duration : 2 h 6 min
Bit rate mode : Constant
Bit rate : 224 kb/s
Channel(s) : 2 channels
Channel positions : Front: L R
Sampling rate : 48.0 kHz
Frame rate : 31.250 FPS (1536 spf)
Compression mode : Lossy
Stream size : 203 MiB (5%)
Title : Japones AC3 224 Kbps
Language : Japanese
Default : No
Forced : No

Text #1
ID : 4
Format : ASS
Codec ID : S_TEXT/ASS
Codec ID/Info : Advanced Sub Station Alpha
Duration : 2 h 6 min
Bit rate : 4 b/s
Count of elements : 62
Compression mode : Lossless
Stream size : 3.74 KiB (0%)
Title : Castellano Forzados [ASS]
Language : Spanish
Default : Yes
Forced : Yes

Text #2
ID : 5
Format : ASS
Codec ID : S_TEXT/ASS
Codec ID/Info : Advanced Sub Station Alpha
Duration : 2 h 6 min
Bit rate : 63 b/s
Count of elements : 1052
Compression mode : Lossless
Stream size : 58.8 KiB (0%)
Title : Castellano Completos [ASS]
Language : Spanish
Default : No
Forced : No


Información Básica
Fuente de vídeo: Blu-Ray 1080p
Contenedor: mkv
Códec: x264 8 Bits
Tamaño: 3.92 GB
Tasa de Bits total: 4 434 Kbps
Resolución: 1920x1080
Audio 1: Castellano AC3 448 Kbps 2 Channels
Audio 2: Japonés AC3 224 Kbps 2 Channels
Montador, Sincronizador y Uploader: HoT.FuN
Subtitulos: Castellano Forzados [ASS], Castellano Completos [ASS] By HoT.FuN
Nota: Esta peli no esta doblada al Català por eso no esta dicho audio.


Capturas
Spoiler: mostra
Imatge
Imatge
Imatge


LINK DE DESCARGA 8 BITS
Imatge
↓↓↓
LINKS DE DESCARGA 8 BITS, DISFRUTAD
MIRROR 1
Imatge
MIRROR 2
Imatge
Nota: Los 2 Links son el mismo pero con distinta web encryptadora ^^

TUTORIAL PARA LA DESCARGA
Primero de todo tener el JDowloader (V2) o Mipony abierto, y cuando estés en la página ncrypt.in o Subedlc.com, tendrás que resolver un captcha (probablemente un puzzle) y después, hacer click en el botón CNL2 o Clic'N'Load
Si hacéis click en Permitir los links de MEGA se agregarán automáticamente a JDowloader (También podéis usar Mipony)
Y luego Con WinRAR 5 descomprimís los archivos usando la contraseña nombrada abajo.

Imatge
=> "HoT.FuN" <=
Sin las comillas ni las flechas :D Y Escribid exactamente = la contraseña, con las mayúsculas y minúsculas u os dará error!

Para comprobar si la película se ha descargado bien podéis usar este programa RapidCRC. Usa los números que pongo en el nombre de la película para decir si se ha bajado correctamente o no ^^
HoT.FuN l’ha editat per darrera vegada el dia: dg. 30 jul. 2017, 17:23, en total s’ha editat 1 vegada.
ImatgeImatge
Imatge
 
Avatar de l’usuari
HoT.FuN
Sushinchu
Sushinchu
Entrades: 470
Membre des de: ds. 28 set. 2013, 01:08
Ubicació: Institut Shohoku

Re: [MEGA] El Viento se Levanta [BDRIP 1080p] [GHIBLI]

dl. 08 ago. 2016, 15:29

Si Alguien le apetece hacer los Subs Completos en Català, que los haga, no tengo ningun reparo en ponerlos en el post con su nick ^^
 
Avatar de l’usuari
MarshmallowMan
Arashinchu
Arashinchu
Entrades: 197
Membre des de: dv. 19 feb. 2016, 23:30

Re: [MEGA] El Viento se Levanta [BDRIP 1080p] [GHIBLI]

dl. 08 ago. 2016, 18:54

¡¡De nuevo gracias HoT.FuN!! :moltbe: La ultima de Ghibli solamente la tenia en AVI y en DVDrip pero ahora la tendré en supremísima calidad. :profident: ¡De nuevo saludos!
 
Avatar de l’usuari
HoT.FuN
Sushinchu
Sushinchu
Entrades: 470
Membre des de: ds. 28 set. 2013, 01:08
Ubicació: Institut Shohoku

Re: [MEGA] El Viento se Levanta [BDRIP 1080p] [GHIBLI]

dl. 08 ago. 2016, 21:15

MarshmallowMan ha escrit:
La ultima de Ghibli


Bueno la ultima es el recuerdo de Marnie y despues El cuento de la princesa Kaguya, esta es la antepenultima xD
ImatgeImatge
Imatge
 
Avatar de l’usuari
MarshmallowMan
Arashinchu
Arashinchu
Entrades: 197
Membre des de: dv. 19 feb. 2016, 23:30

Re: [MEGA] El Viento se Levanta [BDRIP 1080p] [GHIBLI]

dl. 08 ago. 2016, 22:48

Perdón, :profident: en verdad me referia que era la ultima de Ghibli con Hayao Miyazaki, ya que esa fué su ultima obra filmografica con dicho estudio. He ovbiado por descuido decir eso. :tomaquet:
La verdad es que sin él para mi Ghibli deja de ser lo que es en parte su esencia. :sant:
 
Avatar de l’usuari
jordi.sansa
Sanshinchu
Sanshinchu
Entrades: 383
Membre des de: dv. 19 ago. 2011, 17:35

Re: [MEGA] El Viento se Levanta [BDRIP 1080p] [GHIBLI]

dt. 16 ago. 2016, 22:22

moltes gracies hot.fun. Aquesta l'havia vist al cine i encara no la tinc. Llàstima que no hagin fet el doblatge al català :(
 
paula
Usuari
Usuari
Entrades: 2
Membre des de: dj. 10 ago. 2017, 17:14

Re: [MEGA] El Viento se Levanta [BDRIP 1080p] [GHIBLI]

dj. 10 ago. 2017, 17:26

donde esta el enlace de descarga??
 
Avatar de l’usuari
Frydivx
Sanshinchu
Sanshinchu
Entrades: 296
Membre des de: dc. 23 maig 2012, 17:59

Re: [MEGA] El Viento se Levanta [BDRIP 1080p] [GHIBLI]

ds. 12 ago. 2017, 13:46

paula ha escrit:
donde esta el enlace de descarga??


Justo debajo de la imagen de Jdownloader, és un panel desplegable donde pone "LINKS DE DESCARGA 8 BITS, DISFRUTAD".
Abres qualquiera de los dos y resuelves el Captcha de la web encriptadora dás a Click'n'Load con el Jdownloader abierto i si te añadirá al programa automaticamente, le añades la contraseña que sale en el post con click derecho de ratón sobre el enlace, propiedades, establecer contraseña de descarga, copias y pegas, e inicias descarga, listo.

Saludos.
 
Andreuenc
Arashinchu
Arashinchu
Entrades: 98
Membre des de: dl. 04 set. 2017, 22:23

Re: [MEGA] El Viento se Levanta [BDRIP 1080p] [GHIBLI]

dv. 26 gen. 2018, 22:49

Moltes gracies.
 
Avatar de l’usuari
Steve Maister
Moderadors
Moderadors
Entrades: 1953
Membre des de: dc. 05 març 2008, 18:16
Contacta:

Re: [MEGA] El Viento se Levanta [BDRIP 1080p] [GHIBLI]

dg. 02 set. 2018, 15:01

Moltes gràcies per la peli!!!

Ja només em queda la de Marnie de les teves releases. Llàstima que la de Kaguya no estigui :(
Imatge
Anime-Planet.com - anime | manga | watch anime online
 
Avatar de l’usuari
wachimiro
Moderadors
Moderadors
Entrades: 1790
Membre des de: dg. 19 feb. 2006, 16:53
Ubicació: China

Re: [MEGA] El Viento se Levanta [BDRIP 1080p] [GHIBLI]

dt. 11 set. 2018, 02:35

Gracies :).
Si teniu cap problema per descarregar amb JDownloader feu servir aquesta versió i actualitzeu aquí la trobareu. -->>JDownloader <<--
 
Avatar de l’usuari
Heni
Arashinchu
Arashinchu
Entrades: 105
Membre des de: dt. 10 juny 2014, 11:50

Re: [MEGA] El Viento se Levanta [BDRIP 1080p] [GHIBLI]

dt. 11 set. 2018, 12:08

Moltíssimes gràcies per tot el que has pujat de Ghibli! Qualitat estupenda d'imatge; àudios per triar... ^-^ Merci!!
 
oshiii
Usuari
Usuari
Entrades: 1
Membre des de: dt. 02 jul. 2019, 01:29

Re: [MEGA] El Viento se Levanta [BDRIP 1080p] [GHIBLI]

dt. 02 jul. 2019, 01:35

Me la han recomendado gracias

Qui està connectat

Usuaris navegant en aquest fòrum: Google [Bot] i 8 visitants