Anime i manga en català

Moderadors: Steve Maister, wachimiro, Bilkoff

 
Avatar de l’usuari
HoT.FuN
Sushinchu
Sushinchu
Entrades: 470
Membre des de: ds. 28 set. 2013, 01:08
Ubicació: Institut Shohoku

[MEGA] Lupin III: El Castillo de Cagliostro [BDRIP 1080p] [GHIBLI]

dl. 08 ago. 2016, 15:11

Imatge
Título original: Rupan sansei: Kariosutoro no shiro (Lupin III: Castle of Cagliostro)
Año: 1979
Duración: 110 min.
País: Japón
Director: Hayao Miyazaki
Guión: Hayao Miyazaki, Tadashi Yamazaki (Cómic: Monkey Punch)
Música: Yuji Ono
Fotografía: Hirokata Takahashi
Reparto: Animation
Productora: Toho Studios presenta una producción Tokyo Movie Shinsha
Género: Animación. Fantástico. Acción. Aventuras | Manga. Película de culto

Sinopsis:
Lupin, un elegante y atlético ladrón, y su compañero Jigen viajan al pequeño ducado europeo de Cagliostro. Allí ayudarán a la bella Clarice, que intenta librarse del temible Conde Cagliostro, e intentarán resolver el misterio de un tesoro oculto que data del siglo XV.


Mediainfo:
Spoiler: mostra
Complete name : Lupin III - El Castillo de Cagliostro [1979] [BDrip m-1080p] [78803F52].mkv
Format : Matroska
Format version : Version 4 / Version 2
File size : 6.14 GiB
Duration : 1 h 39 min
Overall bit rate : 8 826 kb/s
Movie name : By HoT.FuN
Encoded date : UTC 2016-07-31 02:49:43
Writing application : mkvmerge v9.0.1 ('Obstacles') 64bit
Writing library : libebml v1.3.3 + libmatroska v1.4.4
Attachments : 00555.TTF / 00359.TTF

Video
ID : 1
Format : AVC
Format/Info : Advanced Video Codec
Format profile : High@L4.1
Format settings, CABAC : Yes
Format settings, ReFrames : 4 frames
Codec ID : V_MPEG4/ISO/AVC
Duration : 1 h 39 min
Bit rate : 6 903 kb/s
Width : 1 920 pixels
Height : 1 080 pixels
Display aspect ratio : 16:9
Frame rate mode : Constant
Frame rate : 23.976 (24000/1001) FPS
Color space : YUV
Chroma subsampling : 4:2:0
Bit depth : 8 bits
Scan type : Progressive
Bits/(Pixel*Frame) : 0.139
Stream size : 4.80 GiB (78%)
Writing library : x264 core 148 r2692 64f4e24
Encoding settings : cabac=1 / ref=4 / deblock=1:1:1 / analyse=0x3:0x133 / me=umh / subme=10 / psy=1 / psy_rd=0.40:0.00 / mixed_ref=1 / me_range=24 / chroma_me=1 / trellis=2 / 8x8dct=1 / cqm=0 / deadzone=21,11 / fast_pskip=1 / chroma_qp_offset=-2 / threads=12 / lookahead_threads=3 / sliced_threads=0 / nr=0 / decimate=1 / interlaced=0 / bluray_compat=0 / constrained_intra=0 / bframes=10 / b_pyramid=2 / b_adapt=2 / b_bias=0 / direct=3 / weightb=1 / open_gop=0 / weightp=2 / keyint=240 / keyint_min=23 / scenecut=40 / intra_refresh=0 / rc_lookahead=60 / rc=2pass / mbtree=1 / bitrate=6903 / ratetol=1.0 / qcomp=0.60 / qpmin=0 / qpmax=69 / qpstep=4 / cplxblur=20.0 / qblur=0.5 / vbv_maxrate=62500 / vbv_bufsize=78125 / nal_hrd=none / filler=0 / ip_ratio=1.40 / aq=1:0.60
Default : Yes
Forced : No

Audio #1
ID : 2
Format : AC-3
Format/Info : Audio Coding 3
Mode extension : CM (complete main)
Format settings, Endianness : Big
Codec ID : A_AC3
Duration : 1 h 39 min
Bit rate mode : Constant
Bit rate : 640 kb/s
Channel(s) : 2 channels
Channel positions : Front: L R
Sampling rate : 48.0 kHz
Frame rate : 31.250 FPS (1536 spf)
Compression mode : Lossy
Stream size : 456 MiB (7%)
Title : Català AC3 640 kbps
Language : Catalan
Default : Yes
Forced : No

Audio #2
ID : 3
Format : AC-3
Format/Info : Audio Coding 3
Mode extension : CM (complete main)
Format settings, Endianness : Big
Codec ID : A_AC3
Duration : 1 h 39 min
Bit rate mode : Constant
Bit rate : 640 kb/s
Channel(s) : 2 channels
Channel positions : Front: L R
Sampling rate : 48.0 kHz
Frame rate : 31.250 FPS (1536 spf)
Compression mode : Lossy
Stream size : 456 MiB (7%)
Title : Castellano AC3 640 kbps
Language : Spanish
Default : No
Forced : No

Audio #3
ID : 4
Format : AC-3
Format/Info : Audio Coding 3
Mode extension : CM (complete main)
Format settings, Endianness : Big
Codec ID : A_AC3
Duration : 1 h 39 min
Bit rate mode : Constant
Bit rate : 640 kb/s
Channel(s) : 6 channels
Channel positions : Front: L C R, Side: L R, LFE
Sampling rate : 48.0 kHz
Frame rate : 31.250 FPS (1536 spf)
Compression mode : Lossy
Stream size : 456 MiB (7%)
Title : Japones AC3 640 kbps
Language : Japanese
Default : No
Forced : No

Text #1
ID : 5
Format : ASS
Codec ID : S_TEXT/ASS
Codec ID/Info : Advanced Sub Station Alpha
Duration : 1 h 39 min
Bit rate : 2 b/s
Count of elements : 24
Compression mode : Lossless
Stream size : 1.48 KiB (0%)
Title : Català Forçats [ASS]
Language : Catalan
Default : Yes
Forced : No

Text #2
ID : 6
Format : ASS
Codec ID : S_TEXT/ASS
Codec ID/Info : Advanced Sub Station Alpha
Duration : 1 h 39 min
Bit rate : 2 b/s
Count of elements : 24
Compression mode : Lossless
Stream size : 1.50 KiB (0%)
Title : Castellano Forzados [ASS]
Language : Spanish
Default : No
Forced : No

Text #3
ID : 7
Format : ASS
Codec ID : S_TEXT/ASS
Codec ID/Info : Advanced Sub Station Alpha
Duration : 1 h 39 min
Bit rate : 70 b/s
Count of elements : 869
Compression mode : Lossless
Stream size : 51.3 KiB (0%)
Title : Castellano Completos [ASS]
Language : Spanish
Default : No
Forced : No

Text #4
ID : 8
Format : UTF-8
Codec ID : S_TEXT/UTF8
Codec ID/Info : UTF-8 Plain Text
Duration : 1 h 39 min
Bit rate : 1 b/s
Count of elements : 24
Stream size : 810 Bytes (0%)
Title : Català Forçats [SRT]
Language : Catalan
Default : No
Forced : No

Text #5
ID : 9
Format : UTF-8
Codec ID : S_TEXT/UTF8
Codec ID/Info : UTF-8 Plain Text
Duration : 1 h 39 min
Bit rate : 1 b/s
Count of elements : 24
Stream size : 840 Bytes (0%)
Title : Castellano Forzados [SRT]
Language : Spanish
Default : No
Forced : No

Text #6
ID : 10
Format : UTF-8
Codec ID : S_TEXT/UTF8
Codec ID/Info : UTF-8 Plain Text
Duration : 1 h 39 min
Bit rate : 45 b/s
Count of elements : 869
Stream size : 32.8 KiB (0%)
Title : Castellano Completos [SRT]
Language : Spanish
Default : No
Forced : No

Menu
00:00:00.000 : en:00:00:00.000
00:04:34.399 : en:00:04:34.399
00:15:43.568 : en:00:15:43.568
00:25:00.874 : en:00:25:00.874
00:31:34.017 : en:00:31:34.017
00:40:32.055 : en:00:40:32.055
00:49:08.070 : en:00:49:08.070
00:57:22.564 : en:00:57:22.564
01:04:42.003 : en:01:04:42.003
01:12:07.448 : en:01:12:07.448
01:20:07.928 : en:01:20:07.928
01:33:34.734 : en:01:33:34.734


Información Básica
Fuente de vídeo: Blu-Ray 1080p
Contenedor: mkv
Códec: x264 8 Bits
Tamaño: 6.14 GB
Tasa de Bits total: 8 826 Kbps
Resolución: 1920x1080
Audio 1: Català AC3 640 Kbps 2 Channels
Audio 2: Castellano AC3 640 Kbps 2 Channels
Audio 3: Japonés AC3 640 Kbps 6 Channels
Montador, Sincronizador y Uploader: HoT.FuN
Subtitulos:Català Forçats [ASS+SRT], Castellano Forzados [ASS+SRT], Castellano Completos [ASS+SRT] By HoT.FuN
Nota: Es la peli de Bilkoff, Añadiendo Subs ASS en Cat y Cast, y cambiando los Audios DTS por unos AC3 para mayor compatibilidad.


Capturas
Spoiler: mostra
Imatge
Imatge
Imatge


LINK DE DESCARGA 8 BITS
Imatge
↓↓↓
LINKS DE DESCARGA 8 BITS, DISFRUTAD
MIRROR 1
Imatge
MIRROR 2
Imatge
Nota: Los 2 Links son el mismo pero con distinta web encryptadora ^^

TUTORIAL PARA LA DESCARGA
Primero de todo tener el JDowloader (V2) o Mipony abierto, y cuando estés en la página ncrypt.in o Subedlc.com, tendrás que resolver un captcha (probablemente un puzzle) y después, hacer click en el botón CNL2 o Clic'N'Load
Si hacéis click en Permitir los links de MEGA se agregarán automáticamente a JDowloader (También podéis usar Mipony)
Y luego Con WinRAR 5 descomprimís los archivos usando la contraseña nombrada abajo.

Imatge
=> "HoT.FuN" <=
Sin las comillas ni las flechas :D Y Escribid exactamente = la contraseña, con las mayúsculas y minúsculas u os dará error!

Para comprobar si la película se ha descargado bien podéis usar este programa RapidCRC. Usa los números que pongo en el nombre de la película para decir si se ha bajado correctamente o no ^^
HoT.FuN l’ha editat per darrera vegada el dia: dg. 30 jul. 2017, 16:45, en total s’ha editat 2 vegades.
ImatgeImatge
Imatge
 
Avatar de l’usuari
Steve Maister
Moderadors
Moderadors
Entrades: 1959
Membre des de: dc. 05 març 2008, 18:16
Contacta:

Re: [MEGA] Lupin III: El Castillo de Cagliostro [BDRIP 1080p] [GHIBLI]

dg. 26 feb. 2017, 16:55

Gràcies per la peli! No havia vist mai res de Lupin III, i encara així, se m'ha fet molt disfrutable.

Pd: No sabia que en català li havien canviat el nom per Wolf :blink:
Imatge
Anime-Planet.com - anime | manga | watch anime online
 
Avatar de l’usuari
HoT.FuN
Sushinchu
Sushinchu
Entrades: 470
Membre des de: ds. 28 set. 2013, 01:08
Ubicació: Institut Shohoku

Re: [MEGA] Lupin III: El Castillo de Cagliostro [BDRIP 1080p] [GHIBLI]

dg. 26 feb. 2017, 21:25

Uooooo un comentari a Lupin!!! Thanks Steve!
ImatgeImatge
Imatge
 
Avatar de l’usuari
Matorix_v
Sanshinchu
Sanshinchu
Entrades: 258
Membre des de: ds. 12 juny 2004, 16:53
Contacta:

Re: [MEGA] Lupin III: El Castillo de Cagliostro [BDRIP 1080p] [GHIBLI]

dl. 27 feb. 2017, 20:38

La tinc en dvd peró igualment me la baixaré. Moltes Gracies pel teu treball de compartir-ho :yeah:
Imatge
 
Castalia1987
Usuari
Usuari
Entrades: 1
Membre des de: dv. 17 març 2017, 21:06

Re: [MEGA] Lupin III: El Castillo de Cagliostro [BDRIP 1080p] [GHIBLI]

dg. 19 març 2017, 12:25

mencanta, moltes gracies per laport! Pero tinc problemes no me deixa obrir la descarrega en el jDownloader...
 
Avatar de l’usuari
HoT.FuN
Sushinchu
Sushinchu
Entrades: 470
Membre des de: ds. 28 set. 2013, 01:08
Ubicació: Institut Shohoku

Re: [MEGA] Lupin III: El Castillo de Cagliostro [BDRIP 1080p] [GHIBLI]

dg. 19 març 2017, 20:32

Doncs deus fer alguna cosa malament. per que acabo de mirar si esta malament i nope. A mi em deixa carregar links a JD y descarregar. ^^u
ImatgeImatge
Imatge
 
djfredyeljefe
Usuari
Usuari
Entrades: 1
Membre des de: dg. 30 jul. 2017, 00:53

Re: [MEGA] Lupin III: El Castillo de Cagliostro [BDRIP 1080p] [GHIBLI]

dg. 30 jul. 2017, 01:10

Gracias por el aporte
 
Andreuenc
Arashinchu
Arashinchu
Entrades: 98
Membre des de: dl. 04 set. 2017, 22:23

Re: [MEGA] Lupin III: El Castillo de Cagliostro [BDRIP 1080p] [GHIBLI]

dv. 26 gen. 2018, 23:14

Moltes gracies.

Qui està connectat

Usuaris navegant en aquest fòrum: No hi ha cap usuari registrat i 5 visitants