Anime i manga en català

Moderadors: Steve Maister, wachimiro, Bilkoff

 
Avatar de l’usuari
HoT.FuN
Sushinchu
Sushinchu
Entrades: 472
Membre des de: ds. 28 set. 2013, 01:08
Ubicació: Institut Shohoku

[MEGA] Haru en el Reino de los Gatos [1080p] [GHIBLI]

dl. 08 ago. 2016, 15:25

Imatge
Título original: Neko no Ongaeshi (The Cat Returns)
Año: 2002
Duración: 72 min.
País: Japón
Director: Hiroyuki Morita
Guión: Reiko Yoshida (Cómic: Aoi Hîragi)
Música: Yuji Nomi
Fotografía: Kentaro Takahashi
Reparto: Animation
Productora: Studio Ghibli
Género: Animación. Fantástico. Infantil | Gatos. Spin-off

Web Oficial: http://www.nausicaa.net/miyazaki/neko/

Sinopsis:
Esta es la historia de Haru, una joven cuya suerte cambiará cuando un día, al volver del instituto, salva a un gato de ser atropellado por un camión. Pero no es un gato común, es Lune, el Príncipe del Reino de los Gatos. En recompensa por su acción, Haru es invitada a pasar un tiempo en el reino de Lune.


Mediainfo:
Spoiler: mostra
Complete name : Neko no Ongaeshi [2002] [BDrip m-1080p] [CD86D85E].mkv
Format : Matroska
Format version : Version 4 / Version 2
File size : 4.21 GiB
Duration : 1 h 11 min
Overall bit rate : 8 377 kb/s
Movie name : By HoT.FuN
Encoded date : UTC 2016-08-07 13:26:22
Writing application : mkvmerge v9.0.1 ('Obstacles') 64bit
Writing library : libebml v1.3.3 + libmatroska v1.4.4
Attachments : accid__.ttf / 00359.TTF / 00555.TTF

Video
ID : 1
Format : AVC
Format/Info : Advanced Video Codec
Format profile : High@L4.1
Format settings, CABAC : Yes
Format settings, ReFrames : 4 frames
Codec ID : V_MPEG4/ISO/AVC
Duration : 1 h 11 min
Bit rate : 6 830 kb/s
Width : 1 920 pixels
Height : 1 040 pixels
Display aspect ratio : 1.85:1
Frame rate mode : Constant
Frame rate : 25.000 FPS
Original frame rate : 23.976 (24000/1001) FPS
Color space : YUV
Chroma subsampling : 4:2:0
Bit depth : 8 bits
Scan type : Progressive
Bits/(Pixel*Frame) : 0.137
Stream size : 3.58 GiB (85%)
Writing library : x264 core 142 r2409 d6b4e63
Encoding settings : cabac=1 / ref=4 / deblock=1:2:1 / analyse=0x3:0x113 / me=umh / subme=8 / psy=1 / psy_rd=0.40:0.00 / mixed_ref=1 / me_range=16 / chroma_me=1 / trellis=1 / 8x8dct=1 / cqm=0 / deadzone=21,11 / fast_pskip=1 / chroma_qp_offset=-2 / threads=6 / lookahead_threads=1 / sliced_threads=0 / nr=0 / decimate=1 / interlaced=0 / bluray_compat=0 / constrained_intra=0 / bframes=3 / b_pyramid=2 / b_adapt=2 / b_bias=0 / direct=3 / weightb=1 / open_gop=0 / weightp=2 / keyint=240 / keyint_min=24 / scenecut=40 / intra_refresh=0 / rc_lookahead=50 / rc=2pass / mbtree=1 / bitrate=6830 / ratetol=1.0 / qcomp=0.60 / qpmin=0 / qpmax=69 / qpstep=4 / cplxblur=20.0 / qblur=0.5 / ip_ratio=1.40 / aq=1:0.60
Language : Japanese
Default : Yes
Forced : Yes

Audio #1
ID : 2
Format : AC-3
Format/Info : Audio Coding 3
Mode extension : CM (complete main)
Format settings, Endianness : Big
Codec ID : A_AC3
Duration : 1 h 11 min
Bit rate mode : Constant
Bit rate : 160 kb/s
Channel(s) : 2 channels
Channel positions : Front: L R
Sampling rate : 48.0 kHz
Frame rate : 31.250 FPS (1536 spf)
Compression mode : Lossy
Stream size : 82.3 MiB (2%)
Title : Català AC3 160 Kbps
Language : Catalan
Default : Yes
Forced : No

Audio #2
ID : 3
Format : AC-3
Format/Info : Audio Coding 3
Mode extension : CM (complete main)
Format settings, Endianness : Big
Codec ID : A_AC3
Duration : 1 h 11 min
Bit rate mode : Constant
Bit rate : 448 kb/s
Channel(s) : 3 channels
Channel positions : Front: L C R
Sampling rate : 48.0 kHz
Frame rate : 31.250 FPS (1536 spf)
Compression mode : Lossy
Stream size : 231 MiB (5%)
Title : Castellano AC3 448 Kbps
Language : Spanish
Default : No
Forced : No

Audio #3
ID : 4
Format : AC-3
Format/Info : Audio Coding 3
Mode extension : CM (complete main)
Format settings, Endianness : Big
Codec ID : A_AC3
Duration : 1 h 11 min
Bit rate mode : Constant
Bit rate : 640 kb/s
Channel(s) : 6 channels
Channel positions : Front: L C R, Side: L R, LFE
Sampling rate : 48.0 kHz
Frame rate : 31.250 FPS (1536 spf)
Compression mode : Lossy
Stream size : 329 MiB (8%)
Title : Japones AC3 640 Kbps
Language : Japanese
Default : No
Forced : No

Text #1
ID : 5
Format : ASS
Codec ID : S_TEXT/ASS
Codec ID/Info : Advanced Sub Station Alpha
Duration : 1 h 9 min
Bit rate : 12 b/s
Count of elements : 103
Compression mode : Lossless
Stream size : 6.20 KiB (0%)
Title : Català Forçats [ASS]
Language : Catalan
Default : Yes
Forced : Yes

Text #2
ID : 6
Format : ASS
Codec ID : S_TEXT/ASS
Codec ID/Info : Advanced Sub Station Alpha
Duration : 1 h 9 min
Bit rate : 12 b/s
Count of elements : 103
Compression mode : Lossless
Stream size : 6.22 KiB (0%)
Title : Castellano Forzados [ASS]
Language : Spanish
Default : No
Forced : No

Text #3
ID : 7
Format : ASS
Codec ID : S_TEXT/ASS
Codec ID/Info : Advanced Sub Station Alpha
Duration : 1 h 11 min
Bit rate : 98 b/s
Count of elements : 1061
Compression mode : Lossless
Stream size : 51.5 KiB (0%)
Title : Castellano Completos [ASS]
Language : Spanish
Default : No
Forced : No

Menu
00:00:00.000 : en:00:00:00.000
00:06:09.661 : en:00:06:09.661
00:12:06.851 : en:00:12:06.851
00:19:51.315 : en:00:19:51.315
00:27:31.733 : en:00:27:31.733
00:33:55.450 : en:00:33:55.450
00:40:05.612 : en:00:40:05.612
00:44:00.221 : en:00:44:00.221
00:49:54.825 : en:00:49:54.825
00:55:57.771 : en:00:55:57.771
01:02:35.126 : en:01:02:35.126
01:09:24.452 : en:01:09:24.452
01:10:53.916 : en:01:10:53.916


Información Básica
Fuente de vídeo: Blu-Ray 1080p
Contenedor: mkv
Códec: x264 8 Bits
Tamaño: 4.21 GB
Tasa de Bits total: 8 377 Kbps
Resolución: 1920x1040
Audio 1: Català AC3 160 Kbps 2 Channels
Audio 2: Castellano AC3 448 Kbps 3 Channels
Audio 3: Japonés AC3 640 Kbps 6 Channels
Montador, Sincronizador y Uploader: HoT.FuN
Subtitulos:Català Forçats [ASS], Castellano Forzados [ASS], Castellano Completos [ASS] By HoT.FuN

Capturas
Spoiler: mostra
Imatge
Imatge
Imatge


LINK DE DESCARGA 8 BITS
Imatge
↓↓↓
LINKS DE DESCARGA 8 BITS, DISFRUTAD
MIRROR 1
Imatge
MIRROR 2
Imatge
Nota: Los 2 Links son el mismo pero con distinta web encryptadora ^^

TUTORIAL PARA LA DESCARGA
Primero de todo tener el JDowloader (V2) o Mipony abierto, y cuando estés en la página ncrypt.in o Subedlc.com, tendrás que resolver un captcha (probablemente un puzzle) y después, hacer click en el botón CNL2 o Clic'N'Load
Si hacéis click en Permitir los links de MEGA se agregarán automáticamente a JDowloader (También podéis usar Mipony)
Y luego Con WinRAR 5 descomprimís los archivos usando la contraseña nombrada abajo.

Imatge
=> "HoT.FuN" <=
Sin las comillas ni las flechas :D Y Escribid exactamente = la contraseña, con las mayúsculas y minúsculas u os dará error!

Para comprobar si la película se ha descargado bien podéis usar este programa RapidCRC. Usa los números que pongo en el nombre de la película para decir si se ha bajado correctamente o no ^^
HoT.FuN l’ha editat per darrera vegada el dia: dg. 30 jul. 2017, 17:22, en total s’ha editat 1 vegada.
ImatgeImatge
Imatge
 
Avatar de l’usuari
MarshmallowMan
Sanshinchu
Sanshinchu
Entrades: 204
Membre des de: dv. 19 feb. 2016, 23:30

Re: [MEGA] Haru en el Reino de los Gatos [1080p] [GHIBLI]

dl. 08 ago. 2016, 18:44

¡¡Gracies HoT.FuN!! Aquesta no la trobava en 1080p. ¡Bona feina! :yeah:
 
Maik102
Usuari
Usuari
Entrades: 9
Membre des de: ds. 16 jul. 2016, 13:43

Re: [MEGA] Haru en el Reino de los Gatos [1080p] [GHIBLI]

ds. 13 ago. 2016, 00:40

el audio en castellano creo que está dañado, porque no se escuchan las voces pero si la bso y solo pasa con el castellano
 
Avatar de l’usuari
HoT.FuN
Sushinchu
Sushinchu
Entrades: 472
Membre des de: ds. 28 set. 2013, 01:08
Ubicació: Institut Shohoku

Re: [MEGA] Haru en el Reino de los Gatos [1080p] [GHIBLI]

dg. 14 ago. 2016, 02:34

El audio acabo de mirarlo y funciona perfectamente :/
ImatgeImatge
Imatge
 
Avatar de l’usuari
Adrià
Ryushinchu
Ryushinchu
Entrades: 2516
Membre des de: dt. 24 jul. 2012, 21:11

Re: [MEGA] Haru en el Reino de los Gatos [1080p] [GHIBLI]

dg. 14 ago. 2016, 12:51

Gràcies per la peli! Fa temps que la vaig veure al S3 i la volia guardar en bona qualitat :profident:
Instal·lador MiPony
Instal·lador JDownloader2
Instal·lador eMule
Instal·lador μTorrent 2.2.1 (recomanat)

DESCARREGAR:
JD2 obert - Clicar a CNL2 - Apareixen links al JD2 - Descarregar.
 
Avatar de l’usuari
predabcn
Arashinchu
Arashinchu
Entrades: 110
Membre des de: dt. 12 gen. 2010, 13:43

Re: [MEGA] Haru en el Reino de los Gatos [1080p] [GHIBLI]

dt. 16 ago. 2016, 12:45

Hay un error en los subtítulos forzados catalanes al final de la película, en el minuto 01:09:37 dice "No oblidaré que aviat estarás conmigo para siempre" pasa del catalán al castellano. Un saludo!
 
Avatar de l’usuari
predabcn
Arashinchu
Arashinchu
Entrades: 110
Membre des de: dt. 12 gen. 2010, 13:43

Re: [MEGA] Haru en el Reino de los Gatos [1080p] [GHIBLI]

dt. 16 ago. 2016, 13:46

Por cierto una pregunta, como has conseguido el audio AC3 en catalán si el único DVD que hay de esta película no lo contiene?
 
Avatar de l’usuari
HoT.FuN
Sushinchu
Sushinchu
Entrades: 472
Membre des de: ds. 28 set. 2013, 01:08
Ubicació: Institut Shohoku

Re: [MEGA] Haru en el Reino de los Gatos [1080p] [GHIBLI]

dt. 16 ago. 2016, 16:00

predabcn ha escrit:
Hay un error en los subtítulos forzados catalanes al final de la película, en el minuto 01:09:37


Ahora subire los subs con la corrección.

predabcn ha escrit:
Por cierto una pregunta, como has conseguido el audio AC3 en catalán si el único DVD que hay de esta película no lo contiene?


No es del DVD, es el audio del "DVDRIP" de taketokun un mp3, el cual sincronice con la peli, pero tenia un ruido que limpie y al limpiarlo y sincronizarlo ya lo exporte en AC3 (nunca exporto en Mp3)
ImatgeImatge
Imatge
 
Avatar de l’usuari
Adrià
Ryushinchu
Ryushinchu
Entrades: 2516
Membre des de: dt. 24 jul. 2012, 21:11

Re: [MEGA] Haru en el Reino de los Gatos [1080p] [GHIBLI]

dt. 16 ago. 2016, 21:13

Seguramente el audio sería grabado del Súper3.
Instal·lador MiPony
Instal·lador JDownloader2
Instal·lador eMule
Instal·lador μTorrent 2.2.1 (recomanat)

DESCARREGAR:
JD2 obert - Clicar a CNL2 - Apareixen links al JD2 - Descarregar.
 
jumaa
Usuari
Usuari
Entrades: 1
Membre des de: dt. 06 des. 2016, 11:27

Re: [MEGA] Haru en el Reino de los Gatos [1080p] [GHIBLI]

dt. 06 des. 2016, 16:16

gràcies amic
 
amogosforecer
Usuari
Usuari
Entrades: 1
Membre des de: dl. 06 feb. 2017, 20:35

Re: [MEGA] Haru en el Reino de los Gatos [1080p] [GHIBLI]

dl. 06 feb. 2017, 20:37

¡¡Gracies HoT.FuN!!
 
Avatar de l’usuari
HoT.FuN
Sushinchu
Sushinchu
Entrades: 472
Membre des de: ds. 28 set. 2013, 01:08
Ubicació: Institut Shohoku

Re: [MEGA] Haru en el Reino de los Gatos [1080p] [GHIBLI]

dv. 10 feb. 2017, 13:37

A vosaltres per comentar! ^^
ImatgeImatge
Imatge
 
Avatar de l’usuari
zaraki
Usuari
Usuari
Entrades: 16
Membre des de: dg. 05 juny 2011, 17:24

Re: [MEGA] Haru en el Reino de los Gatos [1080p] [GHIBLI]

dl. 20 feb. 2017, 12:16

Moltes gràcies per la peli i la feina que fas! Per cert, pujaras El cuento de la princesa Kaguya o Your name?
 
Avatar de l’usuari
HoT.FuN
Sushinchu
Sushinchu
Entrades: 472
Membre des de: ds. 28 set. 2013, 01:08
Ubicació: Institut Shohoku

Re: [MEGA] Haru en el Reino de los Gatos [1080p] [GHIBLI]

dt. 21 feb. 2017, 11:22

Tinc tot això, quan les acabare i pujare, no ho se.
https://gyazo.com/7ae3270c3f9222682fa046df06683924
ImatgeImatge
Imatge
 
Avatar de l’usuari
zaraki
Usuari
Usuari
Entrades: 16
Membre des de: dg. 05 juny 2011, 17:24

Re: [MEGA] Haru en el Reino de los Gatos [1080p] [GHIBLI]

dt. 21 feb. 2017, 15:16

Perfecte, gràcies!

Qui està connectat

Usuaris navegant en aquest fòrum: No hi ha cap usuari registrat i 5 visitants