Anime i manga en català

Moderadors: Steve Maister, wachimiro, Bilkoff

 
Avatar de l’usuari
Haru_23
Usuari
Usuari
Entrades: 3
Membre des de: dj. 06 oct. 2016, 19:21

[Mega] Psycho Pass [06/22][Cast/Jap + Subs][BD 720p]

ds. 04 feb. 2017, 21:26

Imatge

Título: Psycho-Pass
Género: Seinen, Ciencia Ficción, Acción
Episodios: 22
Año: 2012
Formato: MKV

Sinopsis:
Spoiler: mostra
En un futuro próximo, es posible medir de forma instantánea el estado mental de una persona, la personalidad y la probabilidad de que dicha persona vaya a cometer delitos con un dispositivo instalado en el cuerpo llamado Psycho-Pass. Cuando esta probabilidad, medida como el índice de "Coeficiente Criminal", es demasiado alta los individuos son perseguidos y detenidos con fuerza letal, si es necesario. La historia sigue a una Unidad de la División de la Oficina de Seguridad Pública e Investigación Criminal, el equivalente a la policía del tiempo actual.


Info del montaje:

Video y subtitulos de Hagure Subs
Audio Japones y Español del BD de Selecta.
Resolucion: 720p 10bits
Audio: Flac (Japones y Español)
Tamaño de los archivos: 400MB - 1GB
Ademas contiene order chapter para los opening y subtitulos forzados para los carteles

Mediainfo:
Spoiler: mostra
Complete name : D:\Psycho Pass\[Scarlet] Psycho-Pass - 01 [Esp-Jap+Subs][BD 720p h264] [5CC3C8BD].mkv
Format : Matroska
Format version : Version 4 / Version 2
File size : 751 MiB
Duration : 23 min 5 s
Overall bit rate mode : Variable
Overall bit rate : 4 546 kb/s
Encoded date : UTC 2016-06-13 18:12:24
Writing application : mkvmerge v7.9.0 ('Birds') 64bit
Writing library : libebml v1.3.1 + libmatroska v1.4.2
Attachments : FRADMCN.TTF / FRAMDCN.TTF / OratorStd.otf / SVBasicManual-Bold.ttf / Aldo PC.otf / Aldo PC.ttf / Amira-Semibold.otf / CremonaExpertBQ-BoldOsF.otf / DINk.ttf / dream orphanage rg.otf

Video
ID : 1
Format : AVC
Format/Info : Advanced Video Codec
Format profile : High 10@L5
Format settings, CABAC : Yes
Format settings, ReFrames : 16 frames
Codec ID : V_MPEG4/ISO/AVC
Duration : 23 min 5 s
Bit rate : 2 957 kb/s
Width : 1 280 pixels
Height : 720 pixels
Display aspect ratio : 16:9
Frame rate mode : Constant
Frame rate : 23.976 (24000/1001) FPS
Color space : YUV
Chroma subsampling : 4:2:0
Bit depth : 10 bits
Scan type : Progressive
Bits/(Pixel*Frame) : 0.134
Stream size : 488 MiB (65%)
Title : Hagure - BD-720p - H264 - 10bit
Writing library : x264 core 129 r2245+729M 1a52e03
Encoding settings : cabac=1 / ref=16 / deblock=1:0:0 / analyse=0x3:0x133 / me=umh / subme=11 / psy=1 / fade_compensate=0.80 / psy_rd=0.60:0.00 / mixed_ref=1 / me_range=32 / chroma_me=1 / trellis=2 / 8x8dct=1 / cqm=0 / deadzone=21,11 / fast_pskip=0 / chroma_qp_offset=-2 / threads=9 / lookahead_threads=2 / sliced_threads=0 / nr=0 / decimate=0 / interlaced=0 / bluray_compat=0 / constrained_intra=0 / fgo=1 / bframes=16 / b_pyramid=2 / b_adapt=2 / b_bias=0 / direct=3 / weightb=1 / open_gop=0 / weightp=2 / keyint=250 / keyint_min=23 / scenecut=40 / intra_refresh=0 / rc_lookahead=60 / rc=crf / mbtree=1 / crf=13.0 / qcomp=0.70 / qpmin=0 / qpmax=81 / qpstep=4 / ip_ratio=1.40 / aq=3:0.80
Language : Spanish
Default : Yes
Forced : No
Color range : Limited
Matrix coefficients : BT.709

Audio #1
ID : 2
Format : FLAC
Format/Info : Free Lossless Audio Codec
Codec ID : A_FLAC
Duration : 23 min 5 s
Bit rate mode : Variable
Bit rate : 788 kb/s
Channel(s) : 2 channels
Channel positions : Front: L R
Sampling rate : 48.0 kHz
Frame rate : 11.719 FPS (4096 spf)
Bit depth : 16 bits
Stream size : 130 MiB (17%)
Title : Japones 2.0
Writing library : libFLAC 1.3.0 (UTC 2013-05-26)
Language : Japanese
Default : No
Forced : No

Audio #2
ID : 3
Format : FLAC
Format/Info : Free Lossless Audio Codec
Codec ID : A_FLAC
Duration : 23 min 5 s
Bit rate mode : Variable
Bit rate : 781 kb/s
Channel(s) : 2 channels
Channel positions : Front: L R
Sampling rate : 48.0 kHz
Frame rate : 11.719 FPS (4096 spf)
Bit depth : 16 bits
Stream size : 129 MiB (17%)
Title : Español 2.0
Writing library : libFLAC 1.3.0 (UTC 2013-05-26)
Language : Spanish
Default : Yes
Forced : No

Text #1
ID : 4
Format : ASS
Codec ID : S_TEXT/ASS
Codec ID/Info : Advanced Sub Station Alpha
Duration : 22 min 50 s
Bit rate : 5 926 b/s
Count of elements : 1914
Compression mode : Lossless
Stream size : 991 KiB (0%)
Title : Hagure - Spanish Subs
Language : Spanish
Default : No
Forced : No

Text #2
ID : 5
Format : ASS
Codec ID : S_TEXT/ASS
Codec ID/Info : Advanced Sub Station Alpha
Duration : 22 min 50 s
Bit rate : 5 814 b/s
Count of elements : 1653
Compression mode : Lossless
Stream size : 973 KiB (0%)
Title : Forzados
Language : Spanish
Default : Yes
Forced : No

Menu
00:00:00.000 : es:Intro
00:02:28.106 : es:Episodio
00:21:19.236 : es:Ending
00:22:50.143 : es:Avance


Enlaces:
Spoiler: mostra
Episodio 01
Episodio 02
Episodio 03
Episodio 04
Episodio 05
Episodio 06
Opening 1
Necesario de descargar para que salga a la hora de ver los caps.


Es la primera vez que publico, perdon si hay algun error.
 
Avatar de l’usuari
Laliga
Usuari
Usuari
Entrades: 21
Membre des de: dg. 10 març 2013, 12:17

Re: [Mega] Psycho Pass [06/22][Cast/Jap + Subs][BD 720p]

dv. 10 març 2017, 01:08

Realmente interesante, Muy muy buena serie y en una calidad estupendísima. Ánimo haber si consigues acabar de subirla!
 
Avatar de l’usuari
jordi.sansa
Sanshinchu
Sanshinchu
Entrades: 383
Membre des de: dv. 19 ago. 2011, 17:35

Re: [Mega] Psycho Pass [06/22][Cast/Jap + Subs][BD 720p]

dl. 13 març 2017, 21:54

moltes gràcies! en breu la començaré.
 
Avatar de l’usuari
RAIDEN4693
Usuari
Usuari
Entrades: 14
Membre des de: ds. 18 juny 2016, 01:42

Re: [Mega] Psycho Pass [06/22][Cast/Jap + Subs][BD 720p]

dj. 13 abr. 2017, 01:29

muchas gracias por la serie!! es la mejor calidad que he encontrado , espero que puedas completarla! Animo!
 
Avatar de l’usuari
MarshmallowMan
Sanshinchu
Sanshinchu
Entrades: 204
Membre des de: dv. 19 feb. 2016, 23:30

Re: [Mega] Psycho Pass [06/22][Cast/Jap + Subs][BD 720p]

dv. 14 abr. 2017, 01:18

Este anime también es uno de mis favoritos. A ver si cuando puedas terminas de compartirla. :) Gracias por los 6 primeros. :yeah:
 
Avatar de l’usuari
jordi.sansa
Sanshinchu
Sanshinchu
Entrades: 383
Membre des de: dv. 19 ago. 2011, 17:35

Re: [Mega] Psycho Pass [06/22][Cast/Jap + Subs][BD 720p]

dj. 20 abr. 2017, 22:17

Està bé aquesta. Ansiós pels pròxims episodis, gràcies :)
 
Avatar de l’usuari
Subaru_Dragon
Ishinchu
Ishinchu
Entrades: 66
Membre des de: dl. 08 maig 2006, 21:31

Re: [Mega] Psycho Pass [06/22][Cast/Jap + Subs][BD 720p]

ds. 27 maig 2017, 10:57

He llegit bones critiques d'aquest anime. M'apunto també per baixar-lo!!!
Anims i moltes gracies!!!! :yeah: :yeah: :yeah:

Qui està connectat

Usuaris navegant en aquest fòrum: No hi ha cap usuari registrat i 3 visitants