Anime i manga en català

Moderadors: Steve Maister, wachimiro, Bilkoff

 
raulgm
Ishinchu
Ishinchu
Entrades: 67
Membre des de: ds. 18 maig 2013, 09:00

[MEGA]Dragon Ball Super 1080p BD [DUAL+SRT]

dt. 07 març 2017, 14:14

Doncs com he comentat en un altre fil finalment m'he decidit a muntar SUPER amb els videos dels BOX i l'audio de Boing a part del subtitols de les parts censurades. Us puc confimar que al menys fins al final de la saga Freezer la continuaré després dependrà de molts factors.

Fitxa tècnica

Rippeig: Blu ray Rip 1080p a 4500 kbps des de els box japonesos
Audio: Dual AC3 192 kbps Espanyol / AC3 192 kbps Japonés
Video: H.264
Format: MKV
Ressolució: 1980 x 1080
Aspecte: 16/9
Tamany: 800 mb
Duració: 23 min
Idioma: Castellà amb subtítols en castellà per les parts censurades

Mediainfo del primer capítol
Spoiler: mostra
General
Unique ID : 251471693610510244961155357520220350996 (0xBD2FAFBDBEA928FA8528BB93CACF6A14)
Complete name : K:\Animación\Castellano\Dragon Ball Super\Dragon Ball Super 1x01 - El gran premio de la paz, quien se llevara los cien millones de zenis [1080p].mkv
Format : Matroska
Format version : Version 4 / Version 2
File size : 833 MiB
Duration : 23mn 6s
Overall bit rate : 5 039 Kbps
Encoded date : UTC 2017-02-27 09:12:01 / UTC
Writing application : mkvmerge v7.9.0 ('Birds') 64bit
Writing library : libebml v1.3.1 + libmatroska v1.4.2 / Lavf55.12.0

Video
ID : 1
Format : AVC
Format/Info : Advanced Video Codec
Format profile : Main@L4
Format settings, CABAC : Yes
Format settings, ReFrames : 4 frames
Codec ID : V_MPEG4/ISO/AVC
Duration : 23mn 6s
Bit rate : 4 500 Kbps
Width : 1 920 pixels
Height : 1 080 pixels
Display aspect ratio : 16:9
Frame rate mode : Constant
Frame rate : 23.976 (24000/1001) fps
Color space : YUV
Chroma subsampling : 4:2:0
Bit depth : 8 bits
Scan type : Progressive
Bits/(Pixel*Frame) : 0.091
Stream size : 753 MiB (90%)
Writing library : x264 core 142 r2479 dd79a61
Encoding settings : cabac=1 / ref=1 / deblock=1:0:0 / analyse=0x1:0x111 / me=hex / subme=2 / psy=1 / psy_rd=1.00:0.00 / mixed_ref=0 / me_range=16 / chroma_me=1 / trellis=0 / 8x8dct=0 / cqm=0 / deadzone=21,11 / fast_pskip=1 / chroma_qp_offset=0 / threads=6 / lookahead_threads=2 / sliced_threads=0 / nr=0 / decimate=1 / interlaced=0 / bluray_compat=0 / constrained_intra=0 / bframes=3 / b_pyramid=2 / b_adapt=1 / b_bias=0 / direct=1 / weightb=1 / open_gop=0 / weightp=1 / keyint=240 / keyint_min=24 / scenecut=40 / intra_refresh=0 / rc_lookahead=10 / rc=2pass / mbtree=1 / bitrate=4500 / ratetol=1.0 / qcomp=0.60 / qpmin=0 / qpmax=69 / qpstep=4 / cplxblur=20.0 / qblur=0.5 / vbv_maxrate=20000 / vbv_bufsize=25000 / nal_hrd=none / filler=0 / ip_ratio=1.40 / aq=1:1.00
Default : Yes
Forced : No
Color range : Limited
Color primaries : BT.709
Transfer characteristics : BT.709
Matrix coefficients : BT.709
Statistics Tags Issue : mkvmerge v7.9.0 ('Birds') 64bit 2017-02-27 09:12:01 / mkvmerge v7.9.0 ('Birds') 64bit 2017-02-27 09:12:01 / UTC
FromStats_BitRate : 4653568
FromStats_Duration : 00:23:06.218000000
FromStats_FrameCount : 33236
FromStats_StreamSize : 806357611

Audio #1
ID : 2
Format : AC-3
Format/Info : Audio Coding 3
Mode extension : CM (complete main)
Format settings, Endianness : Big
Codec ID : A_AC3
Duration : 23mn 6s
Bit rate mode : Constant
Bit rate : 192 Kbps
Channel(s) : 2 channels
Channel positions : Front: L R
Sampling rate : 48.0 KHz
Frame rate : 31.250 fps (1536 spf)
Compression mode : Lossy
Delay relative to video : -83ms
Stream size : 31.7 MiB (4%)
Language : Spanish
Default : Yes
Forced : No
Statistics Tags Issue : mkvmerge v7.9.0 ('Birds') 64bit 2017-02-27 09:12:01 / mkvmerge v7.9.0 ('Birds') 64bit 2017-02-27 09:12:01 / UTC
FromStats_BitRate : 192000
FromStats_Duration : 00:23:06.304000000
FromStats_FrameCount : 43322
FromStats_StreamSize : 33271296

Audio #2
ID : 4
Format : AC-3
Format/Info : Audio Coding 3
Mode extension : CM (complete main)
Format settings, Endianness : Big
Codec ID : A_AC3
Duration : 23mn 6s
Bit rate mode : Constant
Bit rate : 192 Kbps
Channel(s) : 2 channels
Channel positions : Front: L R
Sampling rate : 48.0 KHz
Frame rate : 31.250 fps (1536 spf)
Compression mode : Lossy
Delay relative to video : -5ms
Stream size : 31.7 MiB (4%)
Title : Stereo
Language : Japanese
Default : No
Forced : No
Statistics Tags Issue : mkvmerge v7.9.0 ('Birds') 64bit 2017-02-27 09:12:01 / mkvmerge v7.9.0 ('Birds') 64bit 2017-02-27 09:12:01 / UTC
FromStats_BitRate : 192000
FromStats_Duration : 00:23:06.240000000
FromStats_FrameCount : 43320
FromStats_StreamSize : 33269760

Text
ID : 3
Format : UTF-8
Codec ID : S_TEXT/UTF8
Codec ID/Info : UTF-8 Plain Text
Title : forzados
Language : Spanish
Default : Yes
Forced : No
Statistics Tags Issue : mkvmerge v7.9.0 ('Birds') 64bit 2017-02-27 09:12:01 / mkvmerge v7.9.0 ('Birds') 64bit 2017-02-27 09:12:01 / UTC
FromStats_BitRate : 2
FromStats_Duration : 00:20:50.519000000
FromStats_FrameCount : 12
FromStats_StreamSize : 401

Menu
00:00:00.000 : :Chapter 1
00:01:25.090 : :Chapter 2
00:12:09.275 : :Chapter 3
00:21:35.257 : :Chapter 4
00:22:35.234 : :Chapter 5


Enllaços (Encriptats amb relink):
Box 1 (1-12): http://relink.to/f/971b76bf799f2003bee398a0a44215
Box 2 (13-24): http://relink.to/f/1a036d6ccff6c3d4e93e5acb87d75e
Box 3 (25-36): http://relink.to/f/153419de1bcb4d61c2f8a63ed6b125
Box 4 (37-48): http://relink.to/f/78373b9cb695804fa004a5a12d5e73

Salutacions
raulgm l’ha editat per darrera vegada el dia: dv. 20 oct. 2017, 22:01, en total s’ha editat 5 vegades.
 
Avatar de l’usuari
xagasa
Ryushinchu
Ryushinchu
Entrades: 2063
Membre des de: dl. 26 maig 2014, 10:16
Ubicació: Planeta M2

Re: [MEGA]Dragon Ball Super 1080p BD [DUAL+SRT]

dt. 07 març 2017, 15:31

Ole moltissimes gràcies. Això es lo que estava buscant. Bona currada amb els subtituls. Espero que t'animis a continuarla. I bueno que
tv3 la emeti integra algun dia que es el que tots volem. Salut. :yeah:
 
Avatar de l’usuari
fabrebatalla18
Ryushinchu
Ryushinchu
Entrades: 2724
Membre des de: ds. 11 juny 2011, 17:30

Re: [MEGA]Dragon Ball Super 1080p BD [DUAL+SRT]

dt. 07 març 2017, 15:59

Gracias, por curiosidad, has arreglado el tono del audio? Supongo que ya sabras que Boing lo esta emitiendo con las voces mas agudas por haber acelerado el audio incorrectamente.
 
raulgm
Ishinchu
Ishinchu
Entrades: 67
Membre des de: ds. 18 maig 2013, 09:00

Re: [MEGA]Dragon Ball Super 1080p BD [DUAL+SRT]

dt. 07 març 2017, 16:05

fabrebatalla18 ha escrit:
Gracias, por curiosidad, has arreglado el tono del audio? Supongo que ya sabras que Boing lo esta emitiendo con las voces mas agudas por haber acelerado el audio incorrectamente.


Es tan simple como pasar el audio de 25.000 fps a 23.976, es decir a su velocidad original, y a la velocidad que tienen los archivos originales japoneses.

Por eso te comentaba lo del audio en el otro hilo, es tal la chapuza que hace boing que no me merece la pena pegarme la gran matada con el audio por mejorarlo un poco.

Saludos
 
raulgm
Ishinchu
Ishinchu
Entrades: 67
Membre des de: ds. 18 maig 2013, 09:00

Re: [MEGA]Dragon Ball Super 1080p BD [DUAL+SRT]

dc. 08 març 2017, 09:42

Ja teniu el capítol d'ahir.

Salutacions
 
Avatar de l’usuari
xagasa
Ryushinchu
Ryushinchu
Entrades: 2063
Membre des de: dl. 26 maig 2014, 10:16
Ubicació: Planeta M2

Re: [MEGA]Dragon Ball Super 1080p BD [DUAL+SRT]

dc. 08 març 2017, 09:51

Perfecte moltes gràcies. Salutacions. :yeah:
 
raulgm
Ishinchu
Ishinchu
Entrades: 67
Membre des de: ds. 18 maig 2013, 09:00

Re: [MEGA]Dragon Ball Super 1080p BD [DUAL+SRT]

dj. 09 març 2017, 11:53

Un més, el desé, aquest si que va tenir censura, un parell d'escenes

Salutacions
 
Avatar de l’usuari
xagasa
Ryushinchu
Ryushinchu
Entrades: 2063
Membre des de: dl. 26 maig 2014, 10:16
Ubicació: Planeta M2

Re: [MEGA]Dragon Ball Super 1080p BD [DUAL+SRT]

dj. 09 març 2017, 13:27

raulgm ha escrit:
Un més, el desé, aquest si que va tenir censura, un parell d'escenes

Salutacions

Moltes gràcies. Descarregant. Aquests es va notar alguna censureta.
 
Avatar de l’usuari
rakrak123
Usuari
Usuari
Entrades: 21
Membre des de: dg. 30 nov. 2008, 01:37
Ubicació: PPCC

Re: [MEGA]Dragon Ball Super 1080p BD [DUAL+SRT]

dj. 09 març 2017, 21:21

Gràcies!
 
conan_1989
Sushinchu
Sushinchu
Entrades: 465
Membre des de: dv. 11 abr. 2008, 08:33

Re: [MEGA]Dragon Ball Super 1080p BD [DUAL+SRT]

ds. 11 març 2017, 11:01

Moltes gràcies pel muntatge! Millora molt veure-la així, ànims amb la release!
 
mco234
Arashinchu
Arashinchu
Entrades: 164
Membre des de: dl. 10 oct. 2011, 23:32

Re: [MEGA]Dragon Ball Super 1080p BD [DUAL+SRT]

ds. 11 març 2017, 18:16

Gracies pels 10 primers.

Salutacions
 
raulgm
Ishinchu
Ishinchu
Entrades: 67
Membre des de: ds. 18 maig 2013, 09:00

Re: [MEGA]Dragon Ball Super 1080p BD [DUAL+SRT]

dg. 12 març 2017, 20:22

L'onzè ja està pujat.

Salutacions
 
Avatar de l’usuari
xagasa
Ryushinchu
Ryushinchu
Entrades: 2063
Membre des de: dl. 26 maig 2014, 10:16
Ubicació: Planeta M2

Re: [MEGA]Dragon Ball Super 1080p BD [DUAL+SRT]

dg. 12 març 2017, 20:32

raulgm ha escrit:
L'onzè ja està pujat.

Salutacions

Moltes gràcies raulgm. Salutacions. :yeah:
 
raulgm
Ishinchu
Ishinchu
Entrades: 67
Membre des de: ds. 18 maig 2013, 09:00

Re: [MEGA]Dragon Ball Super 1080p BD [DUAL+SRT]

dt. 14 març 2017, 15:17

Complet el primer box, amb l'emissió d'avui començem amb el segon

Salutacions
 
Avatar de l’usuari
xagasa
Ryushinchu
Ryushinchu
Entrades: 2063
Membre des de: dl. 26 maig 2014, 10:16
Ubicació: Planeta M2

Re: [MEGA]Dragon Ball Super 1080p BD [DUAL+SRT]

dt. 14 març 2017, 15:27

Moltes gràcies. Salut. :yeah:

Qui està connectat

Usuaris navegant en aquest fòrum: Google Feedfetcher i 11 visitants