Anime i manga en català

Moderadors: Steve Maister, wachimiro, Bilkoff

 
Avatar de l’usuari
Haru_23
Usuari
Usuari
Entrades: 3
Membre des de: dj. 06 oct. 2016, 19:21

[Mega] Nanatsu no Taizai: Seisen no Shirushi [04/04][Lat-Esp-Jap+Subs][HDTV]

dt. 14 març 2017, 06:08

Imatge

Título: Nanatsu no Taizai - Seisen no Shirushi
Género: Aventura, Shonen, y Fantasía
Episodios: 5
Año: 2016

Sinopsis:

Nanatsu no Taizai vuelve con un anticipo de lo que será su ya anunciada segunda temporada, esta vez se trata de un pequeño arco de cuatro episodios.

Info del montaje:

Video: Leopard- Raws
Subtitulos: Ñyuum
Resolucion: 720p 8bits
Audio: Latino y Español AC3 192kbps, Japónes AAC 192kbps
Tamaño de los archivos: 500 y 700MB
Contiene chapter y subtitulos forzados
Busque en u2 y otros lados y los bds no estaban, asi que use HDTV.


Mediainfo:

Spoiler: mostra
Format : Matroska
Format version : Version 4 / Version 2
File size : 575 MiB
Duration : 24 min 15 s
Overall bit rate : 3 315 kb/s
Encoded date : UTC 2017-03-03 23:02:06
Writing application : mkvmerge v7.9.0 ('Birds') 64bit
Writing library : libebml v1.3.1 + libmatroska v1.4.2
Attachments : LADYC_.ttf / ufonts.com_wunderlich-medium.ttf / Zantroke.otf / Augusta.ttf / georgia_0.ttf / Gilgamesh Bold.ttf

Video
ID : 1
Format : AVC
Format/Info : Advanced Video Codec
Format profile : High@L4.1
Format settings, CABAC : Yes
Format settings, ReFrames : 4 frames
Codec ID : V_MPEG4/ISO/AVC
Duration : 24 min 15 s
Bit rate : 2 731 kb/s
Width : 1 280 pixels
Height : 720 pixels
Display aspect ratio : 16:9
Frame rate mode : Constant
Frame rate : 23.976 (24000/1001) FPS
Color space : YUV
Chroma subsampling : 4:2:0
Bit depth : 8 bits
Scan type : Progressive
Bits/(Pixel*Frame) : 0.124
Stream size : 474 MiB (82%)
Writing library : x264 core 129 r2245+729M 1a52e03
Encoding settings : cabac=1 / ref=4 / deblock=1:1:-1 / analyse=0x3:0x113 / me=umh / subme=9 / psy=1 / fade_compensate=0.00 / psy_rd=1.00:0.00 / mixed_ref=1 / me_range=24 / chroma_me=1 / trellis=2 / 8x8dct=1 / cqm=0 / deadzone=21,11 / fast_pskip=1 / chroma_qp_offset=-2 / threads=8 / lookahead_threads=1 / sliced_threads=0 / nr=0 / decimate=1 / interlaced=0 / bluray_compat=0 / constrained_intra=0 / fgo=0 / bframes=9 / b_pyramid=2 / b_adapt=2 / b_bias=0 / direct=1 / weightb=1 / open_gop=0 / weightp=2 / keyint=240 / keyint_min=24 / scenecut=40 / intra_refresh=0 / rc=crf / mbtree=0 / crf=17.5 / qcomp=0.72 / qpmin=0 / qpmax=69 / qpstep=4 / ip_ratio=1.40 / pb_ratio=1.30 / aq=1:0.85
Default : Yes
Forced : No
Color range : Limited
Color primaries : BT.709
Transfer characteristics : BT.709
Matrix coefficients : BT.709

Audio #1
ID : 2
Format : AAC
Format/Info : Advanced Audio Codec
Format profile : LC
Codec ID : A_AAC
Duration : 24 min 15 s
Bit rate : 192 kb/s
Channel(s) : 2 channels
Channel positions : Front: L R
Sampling rate : 48.0 kHz
Frame rate : 46.875 FPS (1024 spf)
Compression mode : Lossy
Stream size : 33.3 MiB (6%)
Language : Japanese
Default : No
Forced : No

Audio #2
ID : 3
Format : AC-3
Format/Info : Audio Coding 3
Mode extension : CM (complete main)
Format settings, Endianness : Big
Codec ID : A_AC3
Duration : 24 min 15 s
Bit rate mode : Constant
Bit rate : 192 kb/s
Channel(s) : 2 channels
Channel positions : Front: L R
Sampling rate : 48.0 kHz
Frame rate : 31.250 FPS (1536 spf)
Bit depth : 16 bits
Compression mode : Lossy
Stream size : 33.3 MiB (6%)
Title : Latino
Language : Spanish
Default : Yes
Forced : No

Audio #3
ID : 4
Format : AC-3
Format/Info : Audio Coding 3
Mode extension : CM (complete main)
Format settings, Endianness : Big
Codec ID : A_AC3
Duration : 24 min 15 s
Bit rate mode : Constant
Bit rate : 192 kb/s
Channel(s) : 2 channels
Channel positions : Front: L R
Sampling rate : 48.0 kHz
Frame rate : 31.250 FPS (1536 spf)
Bit depth : 16 bits
Compression mode : Lossy
Stream size : 33.3 MiB (6%)
Title : Español
Language : Spanish
Default : No
Forced : No

Text #1
ID : 5
Format : ASS
Codec ID : S_TEXT/ASS
Codec ID/Info : Advanced Sub Station Alpha
Duration : 23 min 54 s
Bit rate : 177 b/s
Count of elements : 429
Compression mode : Lossless
Stream size : 31.2 KiB (0%)
Title : Ñyuum
Language : Spanish
Default : No
Forced : No

Text #2
ID : 6
Format : ASS
Codec ID : S_TEXT/ASS
Codec ID/Info : Advanced Sub Station Alpha
Duration : 22 min 17 s
Bit rate : 24 b/s
Count of elements : 45
Compression mode : Lossless
Stream size : 3.92 KiB (0%)
Title : Forzados (Lat)
Language : Spanish
Default : Yes
Forced : No

Text #3
ID : 7
Format : ASS
Codec ID : S_TEXT/ASS
Codec ID/Info : Advanced Sub Station Alpha
Duration : 23 min 54 s
Bit rate : 169 b/s
Count of elements : 418
Compression mode : Lossless
Stream size : 29.6 KiB (0%)
Title : Forzados (Esp)
Language : Spanish
Default : No
Forced : No

Menu
00:00:00.000 : :Introducción
00:01:43.061 : :Opening
00:03:13.026 : :Capítulo
00:21:52.060 : :Ending
00:23:22.025 : :Epílogo
00:23:57.061 : :Avance


Capturas:

Spoiler: mostra
ImatgeImatge
ImatgeImatge


Enlaces:

Spoiler: mostra
https://mega.nz/#F!2JUkVJTD!DhfAmT6Q_UqTZq8I53IEcg
Haru_23 l’ha editat per darrera vegada el dia: dc. 31 maig 2017, 20:11, en total s’ha editat 1 vegada.
 
Avatar de l’usuari
jordi.sansa
Sanshinchu
Sanshinchu
Entrades: 383
Membre des de: dv. 19 ago. 2011, 17:35

Re: [Mega] Nanatsu no Taizai: Seisen no Shirushi [02/04][Lat-Esp-Jap+Subs][HDTV]

dt. 14 març 2017, 20:35

gràcies pels episodis!
 
Avatar de l’usuari
Haru_23
Usuari
Usuari
Entrades: 3
Membre des de: dj. 06 oct. 2016, 19:21

Re: [Mega] Nanatsu no Taizai: Seisen no Shirushi [04/04][Lat-Esp-Jap+Subs][HDTV]

dc. 31 maig 2017, 20:12

Terminado esto, gracias a Fabrebatalla que me paso el ultimo audio.
 
Avatar de l’usuari
Subaru_Dragon
Ishinchu
Ishinchu
Entrades: 66
Membre des de: dl. 08 maig 2006, 21:31

Re: [Mega] Nanatsu no Taizai: Seisen no Shirushi [04/04][Lat-Esp-Jap+Subs][HDTV]

dc. 31 maig 2017, 22:29

Ooh!!!! :jaja:
veurem que tal es, moltes graciessss!!!! :profident: :yeah:

Qui està connectat

Usuaris navegant en aquest fòrum: No hi ha cap usuari registrat i 6 visitants