Anime i manga en català

Moderadors: Steve Maister, wachimiro, Bilkoff

 
Avatar de l’usuari
HoT.FuN
Sushinchu
Sushinchu
Entrades: 472
Membre des de: ds. 28 set. 2013, 01:08
Ubicació: Institut Shohoku

[MEGA] Get Backers [49/49] DVDRIP [Cat-Jap] tag

dl. 07 ago. 2017, 18:42

Imatge
Título original: Getto Bakkâzu - Dakkan'ya (GetBackers) (TV Series)
Año: 2002
Duración: 26 min.
Nº de Episodios: 49
País: Japón
Director: Kazuhiro Furuhashi, Keitaro Motonaga, Makoto Sokuza, Masami Furukawa, Osamu Sekida, Shunji Yoshida, Tomoko Hiramuki, Toshiyuki Kato
Guión: Akemi Omode, Jun Maekawa, Reiko Yoshida, Saizo Nemoto, Tadashi Kojima (Manga: Rando Ayamine, Yuya Aoki)
Música: Taku Iwasaki
Fotografía: Animation
Reparto: Animation
Productora: Studio DEEN
Género: Serie de TV. Animación. Acción. Aventuras. Comedia. Drama | Sobrenatural. Manga
Web oficial: http://www.tbs.co.jp/getbackers/

Sinopsis: Serie de TV (2002-2003). 49 episodios. Mido Ban y Amano Ginji son dos compañeros con una empresa un tanto especial, los “GetBackers“. Cualquier cosa que necesites recuperar, ellos te la consiguen, ya sea un gatito perdido, un anillo o al amor de tu vida. La oferta puede parecer interesante, pero se vuelve mejor al conocer las habilidades de ambos personajes. Ban tiene la capacidad de hacer ver a sus rivales una ilusión cualquiera durante un minuto, y Ginji es algo así como una batería gigante capaz de dar calambrazos al primero que se ponga por medio. Ban es el típico tío misterioso y que va de duro, siendo Ginji su contrapartida: despistado y despreocupado.


Mediainfo:
Spoiler: mostra
Complete name : Get Backers 01 - Les inicials són GB By HoT.FuN [C9618CDC].mkv
Format : Matroska
Format version : Version 4 / Version 2
File size : 234 MiB
Duration : 25 min 19 s
Overall bit rate : 1 289 kb/s
Encoded date : UTC 2017-08-07 17:49:57
Writing application : mkvmerge v14.0.0 ('Flow') 64bit
Writing library : libebml v1.3.4 + libmatroska v1.4.5

Video
ID : 1
Format : AVC
Format/Info : Advanced Video Codec
Format profile : High@L3.1
Format settings, CABAC : Yes
Format settings, RefFrames : 9 frames
Codec ID : V_MPEG4/ISO/AVC
Duration : 25 min 19 s
Bit rate : 1 000 kb/s
Width : 720 pixels
Height : 480 pixels
Display aspect ratio : 16:9
Original display aspect rat : 1.85:1
Frame rate mode : Constant
Frame rate : 23.976 (24000/1001) FPS
Color space : YUV
Chroma subsampling : 4:2:0
Bit depth : 8 bits
Scan type : Progressive
Bits/(Pixel*Frame) : 0.121
Stream size : 181 MiB (78%)
Title : x264 - (1000kbps)
Writing library : x264 core 80 r1376M 3feaec2
Encoding settings : cabac=1 / ref=9 / deblock=1:0:0 / analyse=0x3:0x113 / me=umh / subme=6 / psy=1 / psy_rd=0.6:0.6 / mixed_ref=1 / me_range=32 / chroma_me=1 / trellis=2 / 8x8dct=1 / cqm=0 / deadzone=21,11 / fast_pskip=1 / chroma_qp_offset=-4 / threads=12 / sliced_threads=0 / nr=0 / decimate=0 / mbaff=0 / constrained_intra=0 / bframes=3 / b_pyramid=0 / b_adapt=2 / b_bias=0 / direct=3 / wpredb=0 / wpredp=2 / keyint=250 / keyint_min=25 / scenecut=40 / rc_lookahead=40 / rc=2pass / mbtree=1 / bitrate=1000 / ratetol=1.0 / qcomp=0.60 / qpmin=10 / qpmax=51 / qpstep=4 / cplxblur=20.0 / qblur=0.5 / ip_ratio=1.40 / aq=1:1.00
Language : English
Default : Yes
Forced : Yes

Audio #1
ID : 2
Format : AAC
Format/Info : Advanced Audio Codec
Format profile : HE-AAC / LC
Codec ID : A_AAC
Duration : 25 min 19 s
Bit rate : 125 kb/s
Channel(s) : 2 channels
Channel positions : Front: L R
Sampling rate : 96.0 kHz / 48.0 kHz
Frame rate : 46.875 FPS (1024 SPF)
Compression mode : Lossy
Stream size : 22.7 MiB (10%)
Title : Català
Language : Catalan
Default : Yes
Forced : No

Audio #2
ID : 3
Format : MPEG Audio
Format version : Version 1
Format profile : Layer 3
Mode : Joint stereo
Mode extension : MS Stereo
Codec ID : A_MPEG/L3
Codec ID/Hint : MP3
Duration : 25 min 18 s
Bit rate mode : Constant
Bit rate : 160 kb/s
Channel(s) : 2 channels
Sampling rate : 48.0 kHz
Frame rate : 41.667 FPS (1152 SPF)
Compression mode : Lossy
Stream size : 29.0 MiB (12%)
Title : Japonés
Language : Japanese
Default : No
Forced : No


Información Básica
Fuente de vídeo: DVD+DVB
Contenedor: MKV
Códec: x264 8 Bits
Tamaño: 220 MB Aprox.
Tasa de Bits total: 1 200 Kbps Aprox.
Resolución: 720x480
Audio 1: Català MP3 2.0 112 Kbps
Audio 2: Japonés MP3 2.0 160 Kbps
Uploader: HoT.FuN
Montador: oSkY
En el Episodio 1 se ha arreglado el desfase del audio que tenia a partir del min 23. Y el 13 tiene un corte de unos 10 segundos en Japonés.
Re-Subo este Anime con el permiso de oSkY.

Capturas
Spoiler: mostra
Imatge
Imatge
Imatge
Imatge


LINK DE DESCARGA 8 BITS
Imatge
↓↓↓
LINKS DE DESCARGA 8 BITS, DISFRUTAD
MIRROR 1
Imatge
MIRROR 2
Imatge
Nota: Los 2 Links son el mismo pero con distinta web encryptadora ^^

TUTORIAL PARA LA DESCARGA
Primero de todo tener el JDowloader (V2) o Mipony abierto, y cuando estés en la página ncrypt.in o Subedlc.com, tendrás que resolver un captcha (probablemente un puzzle) y después, hacer click en el botón CNL2 o Clic'N'Load
Si hacéis click en Permitir los links de MEGA se agregarán automáticamente a JDowloader (También podéis usar Mipony)


Para comprobar si los archivos se han descargado bien podéis usar este programa RapidCRC. Usa los números que pongo en el nombre de los archivos para decir si se ha bajado correctamente o no ^^
HoT.FuN l’ha editat per darrera vegada el dia: dt. 08 ago. 2017, 02:26, en total s’ha editat 2 vegades.
ImatgeImatge
Imatge
 
Avatar de l’usuari
intervención
Sushinchu
Sushinchu
Entrades: 778
Membre des de: dc. 19 juny 2013, 21:30
Ubicació: Barcelona
Contacta:

Re: [MEGA] Get Backers [49/49] DVDRIP [Cat-Jap] tag

dl. 07 ago. 2017, 19:19

Gracias por la corrección-no-corrección del 01 :P
Imatge
Lluna Plena no Fansub: Manga i Anime en Català!
Estem reclutant! Uneix-te clicant aquí!!
 
Avatar de l’usuari
xagasa
Chishinchu
Chishinchu
Entrades: 3457
Membre des de: dl. 26 maig 2014, 10:16
Ubicació: Planeta M2

Re: [MEGA] Get Backers [49/49] DVDRIP [Cat-Jap] tag

dt. 08 ago. 2017, 09:23

Moltes Gràcies per la serie. Salutacions. :yeah:
 
Avatar de l’usuari
bitERROR
Ryushinchu
Ryushinchu
Entrades: 2825
Membre des de: dt. 16 des. 2003, 01:57
Ubicació: El cajón de las braguitas

Re: [MEGA] Get Backers [49/49] DVDRIP [Cat-Jap] tag

dj. 24 ago. 2017, 11:52

Gràcies, ja està baixant :)
Imatge
Si teniu qualque problema amb lcrypt.eu contacteu amb mi pel fòrum, twitter, discord o telegram
 
Avatar de l’usuari
zoro711
Usuari
Usuari
Entrades: 20
Membre des de: ds. 17 gen. 2015, 21:33
Contacta:

Re: [MEGA] Get Backers [49/49] DVDRIP [Cat-Jap] tag

ds. 16 set. 2017, 22:17

Moltíssimes gràcies :) podre reviure la meva infància.

Qui està connectat

Usuaris navegant en aquest fòrum: No hi ha cap usuari registrat i 6 visitants