Anime i manga en català

Moderadors: Steve Maister, wachimiro, Bilkoff

 
Avatar de l’usuari
HoT.FuN
Sushinchu
Sushinchu
Entrades: 456
Membre des de: ds. 28 set. 2013, 01:08
Ubicació: Institut Shohoku

[MEGA] Samurai Champloo [26/26] 1080p [Cat-Cast] tag

dt. 08 ago. 2017, 02:41

Imatge
Título original: Samurai Chanpurû (Samurai Champloo) (TV Series)
Año: 2004
Duración: 23 min.
Nº de Episodios: 26
País: Japón
Director: Shinichirô Watanabe
Guión: Dai Sato, Kristi Reed
Música: Force of Nature, Fat Jon, Nujabes, Tsutchie
Fotografía: Kazuhiro Yamada
Reparto: Animation
Productora: Fuji TV / Fuji / Manglobe / Shimoigusa Champloos
Género: Serie de TV. Animación. Acción. Aventuras | Samuráis. Japón feudal
Web oficial: http://www.samuraichamploo.com/

Sinopsis: Serie de TV (2004-2005). 26 episodios. Fuu, una chica de 15 años, trabajaba en una casa de té hasta que ésta fue destruida después de una violenta pelea a tres bandas entre Mugen, el vagabundo, Jin, el samurái negro, y los guardaespaldas del hijo del Daikan de ese pueblo. Al final del combate, Mugen y Jin son arrestados para ser ejecutados al día siguiente. Fuu intenta hacer un trato con estos dos individuos: les ayudará a escapar si, a cambio, ellos la ayudan a encontrar al samurái que huele al perfume de semillas de girasol. Pero las cosas no son tan fáciles, ya que Mugen y Jin están siempre intentando acabar el uno con el otro, una rivalidad eterna casi profesional.

Ambos samuráis tienen un pasado borroso; Mugen, de ascendencia pirata, llama la atención con su atuendo y su extraña forma de pelear. De Jin, samurái silencioso, de mirada fría y pocas palabras, es acosado varias veces por todos los distritos por los samuráis de la región, en su viaje hacia Nagasaki. Ex alumnos del dojo del que él procede lo asedian tratando de eliminarlo, debido a su reputación y a la historia que le precede.


Mediainfo:
Spoiler: mostra
Complete name : Samurai Champloo - 01 - Caracters tempestuosos [1080p][Cat-Cast] [03E907CE].mkv
Format : Matroska
Format version : Version 4 / Version 2
File size : 640 MiB
Duration : 23 min 21 s
Overall bit rate : 3 829 kb/s
Encoded date : UTC 2013-09-24 10:20:52
Writing application : mkvmerge v6.4.1 ('Omega Point') built on Sep 16 2013 22:05:10
Writing library : libebml v1.3.0 + libmatroska v1.4.1

Video
ID : 1
Format : AVC
Format/Info : Advanced Video Codec
Format profile : High@L5.1
Format settings, CABAC : Yes
Format settings, RefFrames : 16 frames
Codec ID : V_MPEG4/ISO/AVC
Duration : 23 min 21 s
Bit rate : 3 433 kb/s
Width : 1 920 pixels
Height : 1 080 pixels
Display aspect ratio : 16:9
Frame rate mode : Constant
Frame rate : 23.976 (24000/1001) FPS
Color space : YUV
Chroma subsampling : 4:2:0
Bit depth : 8 bits
Scan type : Progressive
Bits/(Pixel*Frame) : 0.069
Stream size : 573 MiB (90%)
Writing library : x264 core 80 r1376M 3feaec2
Encoding settings : cabac=1 / ref=16 / deblock=1:0:0 / analyse=0x3:0x133 / me=umh / subme=10 / psy=1 / psy_rd=0.6:0.2 / mixed_ref=1 / me_range=24 / chroma_me=1 / trellis=2 / 8x8dct=1 / cqm=0 / deadzone=21,11 / fast_pskip=0 / chroma_qp_offset=-5 / threads=3 / sliced_threads=0 / nr=0 / decimate=0 / mbaff=0 / constrained_intra=0 / bframes=16 / b_pyramid=2 / b_adapt=2 / b_bias=0 / direct=3 / wpredb=1 / wpredp=2 / keyint=250 / keyint_min=25 / scenecut=40 / rc=crf / mbtree=0 / crf=16.0 / qcomp=0.60 / qpmin=10 / qpmax=51 / qpstep=4 / ip_ratio=1.40 / pb_ratio=1.30 / aq=2:0.70
Default : Yes
Forced : No

Audio #1
ID : 2
Format : MPEG Audio
Format version : Version 1
Format profile : Layer 3
Mode : Joint stereo
Mode extension : MS Stereo
Codec ID : A_MPEG/L3
Codec ID/Hint : MP3
Duration : 23 min 21 s
Bit rate mode : Constant
Bit rate : 128 kb/s
Channel(s) : 2 channels
Sampling rate : 44.1 kHz
Compression mode : Lossy
Stream size : 21.4 MiB (3%)
Title : Català
Language : Catalan
Default : Yes
Forced : No

Audio #2
ID : 3
Format : MPEG Audio
Format version : Version 1
Format profile : Layer 3
Codec ID : A_MPEG/L3
Codec ID/Hint : MP3
Duration : 23 min 21 s
Bit rate mode : Constant
Bit rate : 192 kb/s
Channel(s) : 2 channels
Sampling rate : 44.1 kHz
Compression mode : Lossy
Stream size : 32.1 MiB (5%)
Title : Español
Language : Spanish
Default : No
Forced : No


Información Básica
Fuente de vídeo: Blu-Ray 1080p
Contenedor: MKV
Códec: x264 8 Bits High@L5.1
Tamaño: 700 MB Aprox.
Tasa de Bits total: 3 850 Kbps Aprox.
Resolución: 1920x1080
Audio 1: Català MP3 2.0 128 Kbps
Audio 2: Castellano MP3 2.0 192 Kbps
Uploader: HoT.FuN
Montador: HoT.FuN
Sincronización: taketokun
Re-Subo este Anime con el motivo de que el post de taketokun esta caído. Con la diferencia de que no trae Japonés

Capturas
Spoiler: mostra
Imatge
Imatge
Imatge
Imatge


LINK DE DESCARGA 8 BITS
Imatge
↓↓↓
LINKS DE DESCARGA 8 BITS, DISFRUTAD
MIRROR 1
Imatge
MIRROR 2
Imatge
Nota: Los 2 Links son el mismo pero con distinta web encryptadora ^^

TUTORIAL PARA LA DESCARGA
Primero de todo tener el JDowloader (V2) o Mipony abierto, y cuando estés en la página ncrypt.in o Subedlc.com, tendrás que resolver un captcha (probablemente un puzzle) y después, hacer click en el botón CNL2 o Clic'N'Load
Si hacéis click en Permitir los links de MEGA se agregarán automáticamente a JDowloader (También podéis usar Mipony)


Para comprobar si los archivos se han descargado bien podéis usar este programa RapidCRC. Usa los números que pongo en el nombre de los archivos para decir si se ha bajado correctamente o no ^^
ImatgeImatge
Imatge
 
Avatar de l’usuari
Ukko
Ishinchu
Ishinchu
Entrades: 35
Membre des de: dl. 10 feb. 2014, 12:32
Ubicació: Santa Coloma de Cervelló

Re: [MEGA] Samurai Champloo [26/26] 1080p [Cat-Cast] tag

dv. 11 ago. 2017, 01:09

Moltes gracies!
 
Cerenduil
Usuari
Usuari
Entrades: 14
Membre des de: ds. 14 juny 2014, 13:42

Re: [MEGA] Samurai Champloo [26/26] 1080p [Cat-Cast] tag

dj. 31 ago. 2017, 20:09

Per fi! moltes gràcies!
 
Andreuenc
Usuari
Usuari
Entrades: 20
Membre des de: dl. 04 set. 2017, 22:23

Re: [MEGA] Samurai Champloo [26/26] 1080p [Cat-Cast] tag

dc. 13 set. 2017, 22:40

Moltissimes gracies!!!!

Qui està connectat

Usuaris navegant en aquest fòrum: No hi ha cap usuari registrat i 3 visitants