Anime i manga en català

Moderadors: Steve Maister, wachimiro, Bilkoff

 
Avatar de l’usuari
worldofjake2012
Arashinchu
Arashinchu
Entrades: 80
Membre des de: dt. 29 nov. 2016, 22:59
Contacta:

[MEGA] Doraemon: El retorn d'en Doraemon (1998) [DVDrip multi-àudio]

ds. 16 set. 2017, 13:36

Imatge
EL RETORN D'EN DORAEMON


És el curt inclòs en el DVD de Doraemon i la fàbrica de joguines, i és un curt molt trist. :plora:

SINOPSI:
Doraemon ha de tornar al segle XXII i separar-se per sempre d'en Nobita. Però el noi no està disposat a tolerar-ho: promet valer-se per ell mateix i fer que el robot es quedi. Però Doraemon no té una altra opció. Com a regal de comiat li deixa un últim aparell perquè l'utilitzi en el cas que tingui un problema.

FITXA TÈCNICA:
Títols: Doraemon: Kaettekita Doraemon
Any: 1998
País: Japó
Idioma original: Japonès
Gènere: Animació, aventures, fantasia
Tamany: 528MB aproximadament
Format: MKV
Duració: 26 minuts aproximadament

Director: Watanabe Ayumu
Guió: Fujiko F. Fujio
Producció: Shin-Ei Animació, Shogakukan, TV Asahi LUK Internacional S.A.

DADES DEL RIPEIG:
La qualitat del vídeo i dels àudios del ripeig són del DVD de Doraemon i la fàbrica de joguines (ripejat per mi)
L'àudio en japonès i valencià no és d'aquest DVD. L'àudio en japonès i valencià era sincronizat per mi.


MEDIAINFO:
Spoiler: mostra
General
Unique ID : 13407064008620418050180282432741334403 (0xA161B4A673449C1D68886C639925D83)
Complete name : C:\Users\Jake Sharratt M\Downloads\El retorn d'en Doraemon - Kaettekita Doraemon [1998] [DVDrip h.264 AC3 2.0 Cat-Val-Esp-Eus-Gal-Por-Jap × woj2012].mkv
Format : Matroska
Format version : Version 4
File size : 528 MiB
Duration : 26 min 0 s
Overall bit rate : 2 840 kb/s
Encoded date : UTC 2019-04-27 22:07:06
Writing application : mkvmerge v33.1.0 ('Primrose') 64-bit
Writing library : libebml v1.3.7 + libmatroska v1.5.0

Video
ID : 1
Format : AVC
Format/Info : Advanced Video Codec
Format profile : Main@L3.1
Format settings : CABAC / 4 Ref Frames
Format settings, CABAC : Yes
Format settings, RefFrames : 4 frames
Codec ID : V_MPEG4/ISO/AVC
Duration : 26 min 0 s
Bit rate : 1 492 kb/s
Width : 720 pixels
Height : 576 pixels
Display aspect ratio : 16:9
Original display aspect ratio : 5:4
Frame rate mode : Constant
Frame rate : 50.000 FPS
Color space : YUV
Chroma subsampling : 4:2:0
Bit depth : 8 bits
Scan type : Progressive
Bits/(Pixel*Frame) : 0.072
Stream size : 277 MiB (53%)
Writing library : x264 core 148
Encoding settings : cabac=1 / ref=1 / deblock=1:0:0 / analyse=0x1:0x1 / me=dia / subme=1 / psy=1 / psy_rd=1.00:0.00 / mixed_ref=0 / me_range=16 / chroma_me=1 / trellis=0 / 8x8dct=0 / cqm=0 / deadzone=21,11 / fast_pskip=1 / chroma_qp_offset=0 / threads=6 / lookahead_threads=1 / sliced_threads=0 / nr=0 / decimate=1 / interlaced=0 / bluray_compat=0 / constrained_intra=0 / bframes=3 / b_pyramid=2 / b_adapt=1 / b_bias=0 / direct=1 / weightb=1 / open_gop=0 / weightp=1 / keyint=250 / keyint_min=25 / scenecut=40 / intra_refresh=0 / rc=crf / mbtree=0 / crf=23.0 / qcomp=0.60 / qpmin=0 / qpmax=69 / qpstep=4 / ip_ratio=1.40 / pb_ratio=1.30 / aq=1:1.00
Default : Yes
Forced : No

Audio #1
ID : 2
Format : AC-3
Format/Info : Audio Coding 3
Commercial name : Dolby Digital
Codec ID : A_AC3
Duration : 26 min 0 s
Bit rate mode : Constant
Bit rate : 192 kb/s
Channel(s) : 2 channels
Channel layout : L R
Sampling rate : 48.0 kHz
Frame rate : 31.250 FPS (1536 SPF)
Bit depth : 16 bits
Compression mode : Lossy
Stream size : 35.7 MiB (7%)
Title : El retorn d'en Doraemon [Català 2.0]
Language : Catalan
Service kind : Complete Main
Default : Yes
Forced : No

Audio #2
ID : 3
Format : AC-3
Format/Info : Audio Coding 3
Commercial name : Dolby Digital
Codec ID : A_AC3
Duration : 26 min 0 s
Bit rate mode : Constant
Bit rate : 192 kb/s
Channel(s) : 2 channels
Channel layout : L R
Sampling rate : 48.0 kHz
Frame rate : 31.250 FPS (1536 SPF)
Bit depth : 16 bits
Compression mode : Lossy
Stream size : 35.7 MiB (7%)
Title : El retorn de Doraemon [Valencià 2.0]
Language : Catalan
Service kind : Complete Main
Default : No
Forced : No

Audio #3
ID : 4
Format : AC-3
Format/Info : Audio Coding 3
Commercial name : Dolby Digital
Codec ID : A_AC3
Duration : 26 min 0 s
Bit rate mode : Constant
Bit rate : 192 kb/s
Channel(s) : 2 channels
Channel layout : L R
Sampling rate : 48.0 kHz
Frame rate : 31.250 FPS (1536 SPF)
Bit depth : 16 bits
Compression mode : Lossy
Stream size : 35.7 MiB (7%)
Title : El retorno de Doraemon [Castellano 2.0]
Language : Spanish
Service kind : Complete Main
Default : No
Forced : No

Audio #4
ID : 5
Format : AC-3
Format/Info : Audio Coding 3
Commercial name : Dolby Digital
Codec ID : A_AC3
Duration : 26 min 0 s
Bit rate mode : Constant
Bit rate : 192 kb/s
Channel(s) : 2 channels
Channel layout : L R
Sampling rate : 48.0 kHz
Frame rate : 31.250 FPS (1536 SPF)
Bit depth : 16 bits
Compression mode : Lossy
Stream size : 35.7 MiB (7%)
Title : Doraemonen itzulera [Euskara 2.0]
Language : Basque
Service kind : Complete Main
Default : No
Forced : No

Audio #5
ID : 6
Format : AC-3
Format/Info : Audio Coding 3
Commercial name : Dolby Digital
Codec ID : A_AC3
Duration : 26 min 0 s
Bit rate mode : Constant
Bit rate : 192 kb/s
Channel(s) : 2 channels
Channel layout : L R
Sampling rate : 48.0 kHz
Frame rate : 31.250 FPS (1536 SPF)
Bit depth : 16 bits
Compression mode : Lossy
Stream size : 35.7 MiB (7%)
Title : O retorno de Doraemon [Galego 2.0]
Language : Galician
Service kind : Complete Main
Default : No
Forced : No

Audio #6
ID : 7
Format : AC-3
Format/Info : Audio Coding 3
Commercial name : Dolby Digital
Codec ID : A_AC3
Duration : 26 min 0 s
Bit rate mode : Constant
Bit rate : 192 kb/s
Channel(s) : 2 channels
Channel layout : L R
Sampling rate : 48.0 kHz
Frame rate : 31.250 FPS (1536 SPF)
Bit depth : 16 bits
Compression mode : Lossy
Stream size : 35.7 MiB (7%)
Title : O regreso de Doraemon [Português 2.0]
Language : Portuguese
Service kind : Complete Main
Default : No
Forced : No

Audio #7
ID : 8
Format : AC-3
Format/Info : Audio Coding 3
Commercial name : Dolby Digital
Codec ID : A_AC3
Duration : 26 min 0 s
Bit rate mode : Constant
Bit rate : 192 kb/s
Channel(s) : 2 channels
Channel layout : L R
Sampling rate : 48.0 kHz
Frame rate : 31.250 FPS (1536 SPF)
Bit depth : 16 bits
Compression mode : Lossy
Stream size : 35.7 MiB (7%)
Title : 帰ってきたドラえもん [日本語 2.0] [V.O.]
Language : Japanese
Service kind : Complete Main
Default : No
Forced : No

Menu
00:00:00.000 : en:(01)00:00:00:000


CAPTURES:
Imatge

ENLLAÇ:
En català, valencià, castellà, basc, galec, portuguès i japonès:
worldofjake2012 l’ha editat per darrera vegada el dia: dg. 28 abr. 2019, 00:22, en total s’ha editat 5 vegades.
 
Avatar de l’usuari
david80scat
Sushinchu
Sushinchu
Entrades: 468
Membre des de: dv. 05 abr. 2013, 15:14

Re: [MEGA] Doraemon: El retorn d'en Doraemon (1998) [Multi-àudio] [DVDRIP]

ds. 16 set. 2017, 15:18

Moltes gràcies.
 
Avatar de l’usuari
xaiman
Ryushinchu
Ryushinchu
Entrades: 2448
Membre des de: dv. 15 set. 2006, 22:28
Ubicació: al planeta d'en kaito

Re: [MEGA] Doraemon: El retorn d'en Doraemon (1998) [Multi-àudio] [DVDRIP]

dl. 18 set. 2017, 11:44

moltes gracies, ja le baixat per comparar amb el que tinc. Pero la imatge no es com la de les captures, les franges negres laterals son enormes.
Utilitzo el mpc i en el especial de shin chan no pasa. Avore si soc jo o tambe vos pasa a vatros. a10 :yeah:

Edit: son les bandes negres superior i inferior. Faltaria fer un crop.
Spoiler: mostra
Imatge
 
sergioct6
Usuari
Usuari
Entrades: 5
Membre des de: dl. 18 set. 2017, 15:22

Re: [MEGA] Doraemon: El retorn d'en Doraemon (1998) [Multi-àudio] [DVDRIP]

dl. 18 set. 2017, 15:28

Muchas gracias por el aporte, pero como dice xaiman hay bandas negras arriba y abajo.
Espero que puedas volver a hacer el ripeo.:yeah:
 
Avatar de l’usuari
worldofjake2012
Arashinchu
Arashinchu
Entrades: 80
Membre des de: dt. 29 nov. 2016, 22:59
Contacta:

Re: [MEGA] Doraemon: El retorn d'en Doraemon (1998) [Multi-àudio] [DVDRIP]

dl. 18 set. 2017, 19:35

sergioct6 ha escrit:
Muchas gracias por el aporte, pero como dice xaiman hay bandas negras arriba y abajo.
Espero que puedas volver a hacer el ripeo.:yeah:

La versión 4:3 era un ripeo directamente del DVD.
¡Ahora, he subido una versión en 16:9!
 
Avatar de l’usuari
xaiman
Ryushinchu
Ryushinchu
Entrades: 2448
Membre des de: dv. 15 set. 2006, 22:28
Ubicació: al planeta d'en kaito

Re: [MEGA] Doraemon: El retorn d'en Doraemon (1998) [Multi-àudio] [DVDRIP] [versions 4:3 i 16:9]

dl. 18 set. 2017, 21:38

moltes gracies, baixada.
Te menys calitat d'imatge pero em quedo amb la 16:9. Si et desidixes a fer de nou el rip treien les bandes negres em baixare la 4:3. a10 :yeah:
 
hamtaro33
Ishinchu
Ishinchu
Entrades: 69
Membre des de: dg. 01 feb. 2015, 20:04

Re: [MEGA] Doraemon: El retorn d'en Doraemon (1998) [Multi-àudio] [DVDRIP] [versions 4:3 i 16:9]

dc. 27 set. 2017, 17:01

Muchas gracias por compartir. Un cordial saludo.
 
Avatar de l’usuari
worldofjake2012
Arashinchu
Arashinchu
Entrades: 80
Membre des de: dt. 29 nov. 2016, 22:59
Contacta:

Re: [MEGA] Doraemon: El retorn d'en Doraemon (1998) [Multi-àudio] [DVDRIP] [versions 4:3 i 16:9]

dg. 28 abr. 2019, 00:20

He repujat amb àudio en valencià, i corregit el nom basc!

Qui està connectat

Usuaris navegant en aquest fòrum: Google Feedfetcher i 9 visitants