Anime i manga en català

Moderadors: Steve Maister, wachimiro, Bilkoff

 
Andreuenc
Arashinchu
Arashinchu
Entrades: 81
Membre des de: dl. 04 set. 2017, 22:23

[YANDEX] El puny de l' estel del nord [1080p][CT-CS-JP]

dc. 04 abr. 2018, 01:43

Hola a tothom, aquesta es la meva primera pujada.

Imatge

Títol original: Hokuto no Ken (Fist of the North Star)
Any: 1986
Duració: 110 minuts
País: Japó
Director: Toyoo Ashida
Guionista: Susumu Takahisa
Música: Katshuisa Hattori
Fotografía: Tamio Hosoda
Repartiment: Animació
Productora: Toei Animation
Génere: Animació

Sinopsi: La civilitazió ha sigut destruïda. La guerra nuclear ha transformat el planeta en un àrid desert sense vegetació. Motoristes fugitius i cruels, super-poderosos mutants i dictadors, lluiten amb totes les seves ansies per construir els seus regnes, visquén a costa dels més pobres i esparracats supervivents que subsisteixen amontegats entre les runes de les ciutats post-apocalíptiques. Però d' en mig de les cendres ha aparegut un home, l' escollit per salvar el món, en Kenshiro, també conegut com "El puny de l' estel del nord".


Mediainfo:
Spoiler: mostra
General
Unique ID : 180852678562090710281597868987758488323 (0x880EF57B8DDE02929E170CD4D4152B03)
Complete name : El puny de l' estel del nord [BDRIP1080p][L4.1][8b][CT-CS-JP].mkv
Format : Matroska
Format version : Version 4 / Version 2
File size : 8.87 GiB
Duration : 1 h 49 min
Overall bit rate : 11.6 Mb/s
Encoded date : UTC 2018-04-03 16:11:19
Writing application : mkvmerge v21.0.0 ('Tardigrades Will Inherit The Earth') 64-bit
Writing library : libebml v1.3.5 + libmatroska v1.4.8

Video
ID : 1
Format : AVC
Format/Info : Advanced Video Codec
Format profile : High@L4.1
Format settings : CABAC / 4 Ref Frames
Format settings, CABAC : Yes
Format settings, ReFrames : 4 frames
Codec ID : V_MPEG4/ISO/AVC
Duration : 1 h 49 min
Bit rate : 11.0 Mb/s
Width : 1 920 pixels
Height : 1 080 pixels
Display aspect ratio : 16:9
Frame rate mode : Constant
Frame rate : 24.000 FPS
Color space : YUV
Chroma subsampling : 4:2:0
Bit depth : 8 bits
Scan type : Progressive
Bits/(Pixel*Frame) : 0.221
Stream size : 8.43 GiB (95%)
Writing library : x264 core 133 r2334 a3ac64b
Encoding settings : cabac=1 / ref=3 / deblock=1:0:0 / analyse=0x3:0x113 / me=hex / subme=7 / psy=1 / psy_rd=1.00:0.00 / mixed_ref=1 / me_range=16 / chroma_me=1 / trellis=1 / 8x8dct=1 / cqm=0 / deadzone=21,11 / fast_pskip=1 / chroma_qp_offset=-2 / threads=6 / lookahead_threads=1 / sliced_threads=0 / nr=0 / decimate=1 / interlaced=0 / bluray_compat=0 / constrained_intra=0 / bframes=3 / b_pyramid=2 / b_adapt=1 / b_bias=0 / direct=1 / weightb=1 / open_gop=0 / weightp=2 / keyint=250 / keyint_min=24 / scenecut=40 / intra_refresh=0 / rc_lookahead=40 / rc=crf / mbtree=1 / crf=20.0 / qcomp=0.60 / qpmin=0 / qpmax=69 / qpstep=4 / ip_ratio=1.40 / aq=1:1.00
Default : Yes
Forced : No

Audio #1
ID : 2
Format : MPEG Audio
Format version : Version 1
Format profile : Layer 3
Codec ID : A_MPEG/L3
Codec ID/Hint : MP3
Duration : 1 h 49 min
Bit rate mode : Constant
Bit rate : 192 kb/s
Channel(s) : 2 channels
Sampling rate : 44.1 kHz
Frame rate : 38.281 FPS (1152 SPF)
Compression mode : Lossy
Delay relative to video : 24 ms
Stream size : 150 MiB (2%)
Title : Català MP3 192 Kbps 2.0
Writing library : LAME3.99.5
Language : Catalan
Default : Yes
Forced : No

Audio #2
ID : 3
Format : MPEG Audio
Format version : Version 1
Format profile : Layer 3
Codec ID : A_MPEG/L3
Codec ID/Hint : MP3
Duration : 1 h 49 min
Bit rate mode : Constant
Bit rate : 192 kb/s
Channel(s) : 2 channels
Sampling rate : 44.1 kHz
Frame rate : 38.281 FPS (1152 SPF)
Compression mode : Lossy
Delay relative to video : 7 ms
Stream size : 150 MiB (2%)
Title : Castellano MP3 192 Kbps 2.0
Writing library : LAME3.99.5
Language : Spanish
Default : No
Forced : No

Audio #3
ID : 4
Format : MPEG Audio
Format version : Version 1
Format profile : Layer 3
Codec ID : A_MPEG/L3
Codec ID/Hint : MP3
Duration : 1 h 49 min
Bit rate mode : Constant
Bit rate : 192 kb/s
Channel(s) : 2 channels
Sampling rate : 44.1 kHz
Frame rate : 38.281 FPS (1152 SPF)
Compression mode : Lossy
Delay relative to video : 424 ms
Stream size : 150 MiB (2%)
Title : Japonés MP3 192 Kbps 2.0
Writing library : LAME3.99.5U€¤KS›èÌo
Language : Japanese
Default : No
Forced : No


Informació Básica
Font de vídeo: 1080p
Contenidor: mkv
Códec: x264 8 Bits
Tamany: 8.87 GB
Tasa de bits total: 11 600 Kbps
Resolució: 1920x1080
Audio 1: Català MP3 192 Kbps 2.0
Audio 2: Castellà MP3 192 Kbps 2.0
Audio 3: Japonés MP3 192 Kbps 2.0
Subtítols: No té
Encoder, Montador, Sincronitzador: Andreuenc sobre la versió d' Arma Atma
Uploader: Andreuenc


Nota:
Spoiler: mostra
La font original, es d' un tal Arma Atma, la seva versió sortia llistada a Torrent como a "Hokuto no Ken (1986) REMASTER version 3 ultimate", pel que es veu va fer-li upscaling. Originalment pesava 5.21GB. La resolució era 1440x1080, pero amb MediaCoder i el tutorial que hi ha penjat a Animelliure, pero fent alguns canvis, vaig estirar-la fins a 1920x1080, 15 hores va estar codificant... En un principi volia fer només una prova, pensaba que estirant-ho tant es veuria malament, pero la veritat es que no he vist cap diferencia amb la versió original. Vaig quedar molt sorprés i estic content de com a quedat. Comentare, com a possible "animalada" que la versió original duia un bitrate de 6000 Kbps, com estaba fent proves, a les opcions de Mediacoder vaig possar com a nou bitrate 12000 Kbps, segurament no era necessari possar-hi tant, pero per dir-ho d' alguna manera volia anar "sobre segur" i donar marge, si es que aquest marge servia per alguna cosa, es clar... Per altra banda, vaig netejar el so català perque es sentia un "ssssss" per sota. Per últim he tingut que sincronitzar els 3 audios perque no encaixaven ni tan sols a la versió original. La versió original incloia l' audio en anglés, pero el vaig treure. En fi, aqui hi ha gent que realment sap codificar i segurament trobarà errors com el bitrate, potser massa pes, no se. Pero be, ho he fet el millor que he pogut. No sigueu gaire durs.


LINK DE DESCARREGA (LCRYPT DLC):

Contrasenya: Andreuenc
Andreuenc l’ha editat per darrera vegada el dia: dj. 05 abr. 2018, 13:03, en total s’ha editat 7 vegades.
 
Avatar de l’usuari
xagasa
Ryushinchu
Ryushinchu
Entrades: 2854
Membre des de: dl. 26 maig 2014, 10:16
Ubicació: Planeta M2

Re: [YANDEX] El puny de l' estel del nord [1080p][CT-CS-JP]

dc. 04 abr. 2018, 04:29

Doncs la tonalitat del color m'agrada i els audios encaixen be.
Pel tema neteja de audio quin programa has utilitzat?
Salutacions.:yeah:
 
Andreuenc
Arashinchu
Arashinchu
Entrades: 81
Membre des de: dl. 04 set. 2017, 22:23

Re: [YANDEX] El puny de l' estel del nord [1080p][CT-CS-JP]

dc. 04 abr. 2018, 13:39

Hola xagasa, per l' audio vaig fer servir un que es diu GoldWave.
 
Avatar de l’usuari
wachimiro
Moderadors
Moderadors
Entrades: 1717
Membre des de: dg. 19 feb. 2006, 16:53
Ubicació: China

Re: [YANDEX] El puny de l' estel del nord [1080p][CT-CS-JP]

dc. 04 abr. 2018, 18:43

Moltes gracies, baixant ;).
Si teniu cap problema per descarregar amb JDownloader feu servir aquesta versió i actualitzeu aquí la trobareu. -->>JDownloader <<--
 
Andreuenc
Arashinchu
Arashinchu
Entrades: 81
Membre des de: dl. 04 set. 2017, 22:23

Re: [YANDEX] El puny de l' estel del nord [1080p][CT-CS-JP]

dj. 05 abr. 2018, 13:04

He actualitçat a Lcrypt DLC.
 
Avatar de l’usuari
yahweh1985
Usuari
Usuari
Entrades: 9
Membre des de: ds. 11 nov. 2017, 18:13

Re: [YANDEX] El puny de l' estel del nord [1080p][CT-CS-JP]

dg. 15 abr. 2018, 11:06

Moltes gracies!
Me da error al descargar en JDownloader, me dice "intente reiniciar el enlace". Sabéis porque? Gracias!
 
Avatar de l’usuari
Javi Ciffer
Sanshinchu
Sanshinchu
Entrades: 251
Membre des de: dc. 17 oct. 2012, 17:07
Contacta:

Re: [YANDEX] El puny de l' estel del nord [1080p][CT-CS-JP]

dl. 30 abr. 2018, 19:01

yahweh1985 ha escrit:
Moltes gracies!
Me da error al descargar en JDownloader, me dice "intente reiniciar el enlace". Sabéis porque? Gracias!


Create una cuenta en Yandex y añadela a jdonwloader. Si no tienes cuenta te limitan la velocidad.
Imatge
 
Andreuenc
Arashinchu
Arashinchu
Entrades: 81
Membre des de: dl. 04 set. 2017, 22:23

Re: [YANDEX] El puny de l' estel del nord [1080p][CT-CS-JP]

ds. 30 juny 2018, 15:29

Javi Ciffer ha escrit:
yahweh1985 ha escrit:
Moltes gracies!
Me da error al descargar en JDownloader, me dice "intente reiniciar el enlace". Sabéis porque? Gracias!


Create una cuenta en Yandex y añadela a jdonwloader. Si no tienes cuenta te limitan la velocidad.


He probat l' enllaç i descarrega be. Em sembla que no fa falta crear-se cap compta a Yandex per poder descarregar, ara be, si que es veritat que si la crea no tindrà limit de velocitat.

Qui està connectat

Usuaris navegant en aquest fòrum: Google Feedfetcher, tamburine2 i 6 visitants