Anime i manga en català

Moderadors: Steve Maister, wachimiro, Bilkoff

 
Andreuenc
Arashinchu
Arashinchu
Entrades: 105
Membre des de: dl. 04 set. 2017, 22:23

[YANDEX] Venus Wars [BDRIP1080p][CT-CS-JP][cs]

dc. 04 abr. 2018, 14:32

Hola a tothom, aqui deixó una nova pujada.

Imatge

Títol original: Venus Senki (Venus Wars)
Any: 1989
Duració: 102 minuts
País: Japó
Director: Yoshikazu Yasuhiko
Guionista: Yoshikazu Yasuhiko i Yūichi Sasamoto
Música: Joe Hisaishi
Fotografía: Yoshikazu Yasuhiko
Repartiment: Animació
Productora: Shochiku
Génere: Animació

Sinopsi: Al segle XXI la humanitat viu a dos mons. Després de l' impacte d' un meteorit gelat, un moviment de plaques ha transformat Venus en un planeta habitable. Els colons de la terra van adaptar aquest món hostil i han prosperat durant quatre generacions, peró també van portar el costat fosc de la humanitat. Venus està a punt de tornar a ser hostil de nou. Hiro Seno, un motorista, presencía el primer cop de la nació rival, Ishtar, enfront el seu país, Afrodia. Tancs gegantis i avions de guerra destrueixen ràpidament la ciutat. L' armada Afrodiana s' apresura en mobilitzar-se i en fer reclutaments i, tot i la seva oposició a la guerra, Hiro es veu lluitant per la seva vida a primera linea de foc.


Mediainfo:
Spoiler: mostra
General
Unique ID : 107566153388604822222703278083828067356 (0x50EC7CD221E71204241FC698A75BAC1C)
Complete name : Venus Wars [BDRIP1080p][L4.1][8b][CT-CS-JP][cs].mkv
Format : Matroska
Format version : Version 4 / Version 2
File size : 3.81 GiB
Duration : 1 h 43 min
Overall bit rate : 5 269 kb/s
Encoded date : UTC 2018-03-13 18:42:04
Writing application : mkvmerge v21.0.0 ('Tardigrades Will Inherit The Earth') 64-bit
Writing library : libebml v1.3.5 + libmatroska v1.4.8
Attachments : AVGARDM.TTF / AVGARDMI.TTF / BINNERN.TTF / coah.ttf / coahb.ttf / FUTURAB.TTF / FUTURABI.TTF / GOTHIC_0.TTF / GOTHICB_0.TTF / GOTHICBI_0.TTF / GOTHICI_0.TTF / My_Worlds.ttf / nu_century_gothic.ttf / Vera.ttf / VeraBd.ttf / VeraBI.ttf / VeraIt.ttf / ufonts.com_gill-sans1.ttf / ufonts.com_gillsans-italic.ttf / ufonts.com_gill-sans1.ttf / ufonts.com_gillsans-italic.ttf

Video
ID : 1
Format : AVC
Format/Info : Advanced Video Codec
Format profile : High@L4.1
Format settings : CABAC / 4 Ref Frames
Format settings, CABAC : Yes
Format settings, ReFrames : 4 frames
Codec ID : V_MPEG4/ISO/AVC
Duration : 1 h 43 min
Bit rate : 4 658 kb/s
Width : 1 888 pixels
Height : 1 020 pixels
Display aspect ratio : 1.85:1
Frame rate mode : Constant
Frame rate : 23.976 (24000/1001) FPS
Original frame rate : 23.976 (23976/1000) FPS
Color space : YUV
Chroma subsampling : 4:2:0
Bit depth : 8 bits
Scan type : Progressive
Bits/(Pixel*Frame) : 0.101
Stream size : 3.36 GiB (88%)
Writing library : x264 core 133 r2334 a3ac64b
Encoding settings : cabac=1 / ref=3 / deblock=1:0:0 / analyse=0x3:0x113 / me=hex / subme=7 / psy=1 / psy_rd=1.00:0.00 / mixed_ref=1 / me_range=16 / chroma_me=1 / trellis=1 / 8x8dct=1 / cqm=0 / deadzone=21,11 / fast_pskip=1 / chroma_qp_offset=-2 / threads=6 / lookahead_threads=1 / sliced_threads=0 / nr=0 / decimate=1 / interlaced=0 / bluray_compat=0 / constrained_intra=0 / bframes=3 / b_pyramid=2 / b_adapt=1 / b_bias=0 / direct=1 / weightb=1 / open_gop=0 / weightp=2 / keyint=250 / keyint_min=23 / scenecut=40 / intra_refresh=0 / rc_lookahead=40 / rc=crf / mbtree=1 / crf=20.0 / qcomp=0.60 / qpmin=0 / qpmax=69 / qpstep=4 / ip_ratio=1.40 / aq=1:1.00
Default : Yes
Forced : No

Audio #1
ID : 2
Format : MPEG Audio
Format version : Version 1
Format profile : Layer 3
Codec ID : A_MPEG/L3
Codec ID/Hint : MP3
Duration : 1 h 42 min
Bit rate mode : Constant
Bit rate : 160 kb/s
Channel(s) : 2 channels
Sampling rate : 44.1 kHz
Frame rate : 38.281 FPS (1152 SPF)
Compression mode : Lossy
Stream size : 117 MiB (3%)
Title : Català MP3 160 Kbps 2.0
Writing library : LAME3.99.5
Language : Catalan
Default : Yes
Forced : No

Audio #2
ID : 3
Format : AC-3
Format/Info : Audio Coding 3
Codec ID : A_AC3
Duration : 1 h 43 min
Bit rate mode : Constant
Bit rate : 192 kb/s
Channel(s) : 2 channels
Channel positions : Front: L R
Sampling rate : 48.0 kHz
Frame rate : 31.250 FPS (1536 SPF)
Bit depth : 16 bits
Compression mode : Lossy
Delay relative to video : 24 ms
Stream size : 142 MiB (4%)
Title : Castellano AC3 192 Kbps 2.0
Language : Spanish
Service kind : Complete Main
Default : No
Forced : No

Audio #3
ID : 4
Format : AC-3
Format/Info : Audio Coding 3
Codec ID : A_AC3
Duration : 1 h 43 min
Bit rate mode : Constant
Bit rate : 256 kb/s
Channel(s) : 2 channels
Channel positions : Front: L R
Sampling rate : 48.0 kHz
Frame rate : 31.250 FPS (1536 SPF)
Bit depth : 16 bits
Compression mode : Lossy
Stream size : 189 MiB (5%)
Title : Japonés AC3 256 Kbps 2.0
Language : Japanese
Service kind : Complete Main
Default : No
Forced : No

Text
ID : 5
Format : ASS
Codec ID : S_TEXT/ASS
Codec ID/Info : Advanced Sub Station Alpha
Duration : 1 h 41 min
Bit rate : 91 b/s
Count of elements : 1073
Compression mode : Lossless
Stream size : 67.9 KiB (0%)
Title : Castellano Completos [ASS]
Language : Spanish
Default : No
Forced : No

Menu
00:00:00.000 : en:00:00:00.000
00:05:32.200 : en:00:05:32.200
00:10:38.360 : en:00:10:38.360
00:18:00.920 : en:00:18:00.920
00:24:48.360 : en:00:24:48.360
00:33:24.200 : en:00:33:24.200
00:41:09.240 : en:00:41:09.240
00:56:42.360 : en:00:56:42.360
01:00:30.600 : en:01:00:30.600
01:09:00.320 : en:01:09:00.320
01:19:42.720 : en:01:19:42.720
01:30:31.000 : en:01:30:31.000


Informació Básica

Font de vídeo: BDrip 1080p
Contenidor: mkv
Códec: x264 8 Bits
Tamany: 3.81 GB
Tasa de bits total: 4 658 Kbps
Resolució: 1888x1020
Audio 1: Català MP3 160 Kbps 2.0
Audio 2: Castellà AC3 192 Kbps 2.0
Audio 3: Japonés AC3 256 Kbps 2.0
Subtítols: Castellà Complets [ASS]
Encoder, Montador, Sincronitzador: Andreuenc sobre les versións d' Snatcher i LordKnightmarell
Uploader: Andreuenc


Nota:
Spoiler: mostra
La font de video prové d' una versió BDRIP1080p japonesa que vaig descarregar via Torrent, els subtitols de la versió d' Snatcher, l' audio català i castellà de la versió de LordKnightmarell. Vaig haver de sincronitzar els audios per a que encaixes.


LINK DE DESCARREGA (LCRYPT DLC):

Contrasenya: Andreuenc
Andreuenc l’ha editat per darrera vegada el dia: dc. 29 ago. 2018, 13:10, en total s’ha editat 2 vegades.
 
Avatar de l’usuari
wachimiro
Moderadors
Moderadors
Entrades: 1859
Membre des de: dg. 19 feb. 2006, 16:53
Ubicació: China

Re: [YANDEX] Venus Wars [BDRIP1080p][CT-CS-JP][cs]

dc. 04 abr. 2018, 18:41

Moltes gracies, baixant. En biterror ha creat un encriptador tipus subedlc, funciona molts me, simple sense publicitat i fa el que te que fer. http://lcrypt.eu pots provar, jo personalment no penso fer servir més subedlc, tot i que funciona be, prefereixo no dependre tant de serveis externs, almenys lcrypt.eu sabem d'on be i qui ho gestiona i hi ha seguretat que la cosa perdurara.
Si teniu cap problema per descarregar amb JDownloader feu servir aquesta versió i actualitzeu aquí la trobareu. -->>JDownloader <<--
 
Andreuenc
Arashinchu
Arashinchu
Entrades: 105
Membre des de: dl. 04 set. 2017, 22:23

Re: [YANDEX] Venus Wars [BDRIP1080p][CT-CS-JP][cs]

dc. 04 abr. 2018, 21:23

Doncs actualitzaré els tres DLC. Ei ¿pero com va? "Acces Password", "FileExtractionPassword", "EditPassword". ¿Per a que serviria cada cosa?
 
Avatar de l’usuari
bitERROR
Ryushinchu
Ryushinchu
Entrades: 2842
Membre des de: dt. 16 des. 2003, 01:57
Ubicació: El cajón de las braguitas

Re: [YANDEX] Venus Wars [BDRIP1080p][CT-CS-JP][cs]

dc. 04 abr. 2018, 23:19

Gràcies per la peli, serà un gust tornar a veure-la amb aquesta qualitat. :)

Andreuenc ha escrit:
Doncs actualitzaré els tres DLC. Ei ¿pero com va? "Acces Password", "FileExtractionPassword", "EditPassword". ¿Per a que serviria cada cosa?

Pel que fa a lcrypt miraré d'aclarir una mica això al formulari (i traduir-lo).

"Access" es refereix a poder accedir al enllaç per fer la descàrrega, "File extraction" és el password de descompressió dels fitxers si estan comprimits amb contrasenya, si es posa s'autoconfigurarà al jdownloader, i "Edit" es per a que el propietari del enllaç (tú) pugui editar-lo.

Tots els passwords són opcionals i editables.
Imatge
Si teniu qualque problema amb lcrypt.eu contacteu amb mi pel fòrum, twitter, discord o telegram
 
Andreuenc
Arashinchu
Arashinchu
Entrades: 105
Membre des de: dl. 04 set. 2017, 22:23

Re: [YANDEX] Venus Wars [BDRIP1080p][CT-CS-JP][cs]

dj. 05 abr. 2018, 13:20

He actualitçat a Lcrypt DLC.
 
Avatar de l’usuari
thegarfel
Arashinchu
Arashinchu
Entrades: 159
Membre des de: dt. 19 feb. 2013, 15:36

Re: [YANDEX] Venus Wars [BDRIP1080p][CT-CS-JP][cs]

dl. 24 ago. 2020, 20:23

Merci per la pujada Andreuenc, me l'acaben de recomanar. 10/10 la qualitat.

Per cert, estic buscant una pel·li similar a aquesta que vaig veure ja fa més de 15 anys per la tele. Algú te alguna idea?

Qui està connectat

Usuaris navegant en aquest fòrum: No hi ha cap usuari registrat i 14 visitants