Anime i manga en català

Moderadors: Steve Maister, wachimiro, Bilkoff

 
Andreuenc
Arashinchu
Arashinchu
Entrades: 81
Membre des de: dl. 04 set. 2017, 22:23

[YANDEX] Ninja Scroll [BDRIP1080p][CT-CS-JP][cs]

dc. 04 abr. 2018, 14:55

Hola a tothom, aqui deixó una nova pujada.

Imatge

Títol original: Jube Ninpucho (Ninja Scroll)
Any: 1993
Duració: 94 minuts
País: Japó
Director: Yoshiaki Kawajiri
Guionista: Yoshiaki Kawajiri
Música: Kaoru Wada
Fotografía: Hitoshi Yamaguchi
Repartiment: Animació
Productora: Mad House
Génere: Animació

Sinopsi:Després d' interminables anys de guerra civil, el Japó feudal tremola davant l' aparició de l' amenaça més perillosa de la que s' hagi sentit parlar mai: El "Shogun de la foscor". Amb el seu exercit de éssers dimoníacs i guerrers sanguinaris pretén arrasar tot el Japó. Peró un poderós samurai errant anomenat Jubei Kibagami, un samurai llegendari amb unes técniques de combat que li permeten acabar amb qualsevol enemic, està dispossat a enfrontar-s'hi i acabar amb ell com sigui. L' enfrontament amb els Vuit dimonis de Kimon ha començat.


Mediainfo:
Spoiler: mostra
General
Unique ID : 34853173894729112601930319176466530519 (0x1A387A24EF4B387CFD0BBFD2F1C980D7)
Complete name : Ninja Scroll [BDRIP1080p][L4.1][8b][CT-CS-JP][cs].mkv
Format : Matroska
Format version : Version 4 / Version 2
File size : 2.89 GiB
Duration : 1 h 31 min
Overall bit rate mode : Variable
Overall bit rate : 4 523 kb/s
Encoded date : UTC 2018-03-24 17:40:49
Writing application : mkvmerge v21.0.0 ('Tardigrades Will Inherit The Earth') 64-bit
Writing library : libebml v1.3.5 + libmatroska v1.4.8
Attachments : ufonts.com_gill-sans1.ttf / ufonts.com_gillsans-italic.ttf

Video
ID : 1
Format : AVC
Format/Info : Advanced Video Codec
Format profile : High@L4.1
Format settings : CABAC / 3 Ref Frames
Format settings, CABAC : Yes
Format settings, ReFrames : 3 frames
Codec ID : V_MPEG4/ISO/AVC
Duration : 1 h 31 min
Bit rate mode : Variable
Bit rate : 4 073 kb/s
Maximum bit rate : 40.0 Mb/s
Width : 1 456 pixels
Height : 1 080 pixels
Display aspect ratio : 4:3
Frame rate mode : Constant
Frame rate : 23.976 (24000/1001) FPS
Color space : YUV
Chroma subsampling : 4:2:0
Bit depth : 8 bits
Scan type : Progressive
Bits/(Pixel*Frame) : 0.108
Stream size : 2.61 GiB (90%)
Writing library : x264 core 125 r2200 999b753
Encoding settings : cabac=1 / ref=4 / deblock=1:-1:-1 / analyse=0x3:0x113 / me=umh / subme=8 / psy=1 / psy_rd=1.00:0.15 / mixed_ref=1 / me_range=16 / chroma_me=1 / trellis=1 / 8x8dct=1 / cqm=0 / deadzone=21,11 / fast_pskip=1 / chroma_qp_offset=-3 / threads=9 / lookahead_threads=1 / sliced_threads=0 / slices=4 / nr=0 / decimate=1 / interlaced=0 / bluray_compat=0 / constrained_intra=0 / bframes=3 / b_pyramid=1 / b_adapt=2 / b_bias=0 / direct=3 / weightb=1 / open_gop=0 / weightp=0 / keyint=23 / keyint_min=1 / scenecut=40 / intra_refresh=0 / rc_lookahead=23 / rc=crf / mbtree=1 / crf=20.0 / qcomp=0.60 / qpmin=0 / qpmax=51 / qpstep=4 / vbv_maxrate=40000 / vbv_bufsize=30000 / crf_max=0.0 / nal_hrd=vbr / ip_ratio=1.40 / aq=1:1.00
Language : Japanese
Default : Yes
Forced : No

Audio #1
ID : 2
Format : MPEG Audio
Format version : Version 1
Format profile : Layer 3
Codec ID : A_MPEG/L3
Codec ID/Hint : MP3
Duration : 1 h 31 min
Bit rate mode : Constant
Bit rate : 128 kb/s
Channel(s) : 2 channels
Sampling rate : 44.1 kHz
Frame rate : 38.281 FPS (1152 SPF)
Compression mode : Lossy
Stream size : 83.5 MiB (3%)
Title : Català MP3 128 Kbps 2.0
Writing library : LAME3.99.5
Language : Catalan
Default : Yes
Forced : No

Audio #2
ID : 3
Format : MPEG Audio
Format version : Version 1
Format profile : Layer 3
Codec ID : A_MPEG/L3
Codec ID/Hint : MP3
Duration : 1 h 31 min
Bit rate mode : Constant
Bit rate : 128 kb/s
Channel(s) : 2 channels
Sampling rate : 44.1 kHz
Frame rate : 38.281 FPS (1152 SPF)
Compression mode : Lossy
Stream size : 83.5 MiB (3%)
Title : Castellano MP3 128 Kbps 2.0
Writing library : LAME3.99.5
Language : Spanish
Default : No
Forced : No

Audio #3
ID : 4
Format : AC-3
Format/Info : Audio Coding 3
Codec ID : A_AC3
Duration : 1 h 31 min
Bit rate mode : Constant
Bit rate : 192 kb/s
Channel(s) : 2 channels
Channel positions : Front: L R
Sampling rate : 48.0 kHz
Frame rate : 31.250 FPS (1536 SPF)
Bit depth : 16 bits
Compression mode : Lossy
Delay relative to video : 16 ms
Stream size : 126 MiB (4%)
Title : Japonés AC3 192 Kbps 2.0
Language : Japanese
Service kind : Complete Main
Default : No
Forced : No

Text
ID : 5
Format : UTF-8
Codec ID : S_TEXT/UTF8
Codec ID/Info : UTF-8 Plain Text
Duration : 1 h 26 min
Bit rate : 34 b/s
Count of elements : 572
Stream size : 22.0 KiB (0%)
Title : Castellano Completos [SRT]
Language : Spanish
Default : No
Forced : No

Menu
00:00:00.000 : en:00:00:00.000
00:02:54.174 : en:00:02:54.174
00:06:31.099 : en:00:06:31.099
00:09:19.934 : en:00:09:19.934
00:14:33.706 : en:00:14:33.706
00:19:56.487 : en:00:19:56.487
00:22:02.029 : en:00:22:02.029
00:25:19.268 : en:00:25:19.268
00:28:54.524 : en:00:28:54.524
00:33:35.096 : en:00:33:35.096
00:37:32.917 : en:00:37:32.917
00:43:11.589 : en:00:43:11.589
00:45:19.175 : en:00:45:19.175
00:47:39.899 : en:00:47:39.899
00:52:16.842 : en:00:52:16.842
00:55:16.730 : en:00:55:16.730
00:59:36.948 : en:00:59:36.948
01:03:16.126 : en:01:03:16.126
01:06:18.183 : en:01:06:18.183
01:11:28.326 : en:01:11:28.326
01:13:00.543 : en:01:13:00.543
01:16:47.686 : en:01:16:47.686
01:19:41.694 : en:01:19:41.694
01:27:52.684 : en:01:27:52.684


Informació Básica

Font de vídeo: BDrip 1080p
Contenidor: mkv
Códec: x264 8 Bits
Tamany: 2.89 GB
Tasa de bits total: 4 523 Kbps
Resolució: 1456x1080
Audio 1: Català MP3 128 Kbps 2.0
Audio 2: Castellà MP3 128 Kbps 2.0
Audio 3: Japonés AC3 192 Kbps 2.0
Encoder, Montador, Sincronitzador: Andreuenc sobre la versió d' Animecat i EvoShare
Uploader: Andreuenc
Subtítols: Castellà Complets [SRT]


Nota:
Spoiler: mostra
La font de video prové d' una versió BDRIP1080p castellana-japonesa amb subtitols en castellà d' EvoShare, l' audio català es de la versió d' Animecat. Vaig haver de sincronitzar els audios per a que encaixes.


LINK DE DESCARREGA (LCRYPT DLC):

Contrasenya: Andreuenc
 
Andreuenc
Arashinchu
Arashinchu
Entrades: 81
Membre des de: dl. 04 set. 2017, 22:23

Re: [YANDEX] Ninja Scroll [BDRIP1080p][CT-CS-JP][cs]

dj. 05 abr. 2018, 13:16

He actualitçat a Lcrypt DLC.
 
Avatar de l’usuari
wachimiro
Moderadors
Moderadors
Entrades: 1717
Membre des de: dg. 19 feb. 2006, 16:53
Ubicació: China

Re: [YANDEX] Ninja Scroll [BDRIP1080p][CT-CS-JP][cs]

dv. 06 abr. 2018, 16:41

Gracies :)
Si teniu cap problema per descarregar amb JDownloader feu servir aquesta versió i actualitzeu aquí la trobareu. -->>JDownloader <<--
 
Andreuenc
Arashinchu
Arashinchu
Entrades: 81
Membre des de: dl. 04 set. 2017, 22:23

Re: [YANDEX] Ninja Scroll [BDRIP1080p][CT-CS-JP][cs]

ds. 30 juny 2018, 15:31

Que burro!! Ara m' he adonat que no vaig estirar el video de Ninja Scroll fins a 1920x1080...
 
Avatar de l’usuari
xagasa
Ryushinchu
Ryushinchu
Entrades: 2854
Membre des de: dl. 26 maig 2014, 10:16
Ubicació: Planeta M2

Re: [YANDEX] Ninja Scroll [BDRIP1080p][CT-CS-JP][cs]

ds. 30 juny 2018, 20:33

La has modificat?

Edit: veig que si. No havia llegit que era nova versió.
Moltes gràcies.
Salutacions.

Qui està connectat

Usuaris navegant en aquest fòrum: Baidu [Spider], tamburine2 i 3 visitants