Anime i manga en català

Moderadors: Steve Maister, wachimiro, Bilkoff

 
Avatar de l’usuari
Bilkoff
Moderadors
Moderadors
Entrades: 796
Membre des de: dt. 05 oct. 2004, 19:22
Ubicació: Borriana

Your Name [2160p - 4K]

dl. 16 jul. 2018, 19:29

Your Name
君の名は。 Kimi no Na wa.

Imatge


ANY: 2016
DURACIÓ: 107 min.
DIRECTOR: Makoto Shinkai
GUIO: Makoto Shinkai
MÚSICA: Radwimps
PRODUCTOR: Noritaka Kawaguchi, Genki Kawamura
SINOPSIS: En Taki i la Mitsuha, dos adolescents, descobreixen un dia que mentre dormen els seus cossos s'intercanvien, i comencen a comunicar-se entre ells per mitjà de notes i els telèfons mòbils. Ella és una estudiant d'un petit poblet que renega de la vida rural i anhela viure a la ciutat; ell, un tímid estudiant de Tòquio amb una feina a temps parcial en un restaurant italià. A mesura que aconsegueixen superar el xoc inicial es va creant entre els dos un lligam que a poc a poc es converteix en alguna cosa més.

Contenidor: mkv.
Formats: x265, flac i srt.
Àudio: Japonès, castellà i català.
Subtítols: Castellà (+ forzados), català (+ forçats).
Qualitat: Rip del blu-ray original UHD japonès per al vídeo i àudio japonès, rip del blu-ray espanyol per als àudios català i castellà.
Mida total: 14'7 Gb.

Report Mediainfo
General
Unique ID                   : 61261675395580458099957469068396194732 (0x2E1691CB539CFCC199B55988FB19EBAC)
Complete name               : D:\Your Name.mkv
Format                      : Matroska
Format version              : Version 4 / Version 2
File size                   : 14.7 GiB
Duration                    : 1 h 46 min
Overall bit rate mode       : Variable
Overall bit rate            : 19.7 Mb/s
Movie name                  : Your Name
Encoded date                : UTC 2018-07-14 16:32:12
Writing application         : mkvmerge v24.0.0 ('Beyond The Pale') 64-bit
Writing library             : libebml v1.3.6 + libmatroska v1.4.9

Video
ID                          : 1
Format                      : HEVC
Format/Info                 : High Efficiency Video Coding
Format profile              : Main@L5@Main
Codec ID                    : V_MPEGH/ISO/HEVC
Duration                    : 1 h 46 min
Bit rate                    : 14.3 Mb/s
Width                       : 3 840 pixels
Height                      : 2 160 pixels
Display aspect ratio        : 16:9
Frame rate mode             : Constant
Frame rate                  : 23.976 (24000/1001) FPS
Color space                 : YUV
Chroma subsampling          : 4:2:0
Bit depth                   : 8 bits
Bits/(Pixel*Frame)          : 0.072
Stream size                 : 10.7 GiB (73%)
Writing library             : x265 2.7+1-2aa737a99f51:[Windows][GCC 7.3.0][64 bit] 8bit+10bit+12bit
Encoding settings           : cpuid=1173503 / frame-threads=3 / numa-pools=8 / wpp / no-pmode / no-pme / no-psnr / no-ssim / log-level=2 / input-csp=1 / input-res=3840x2160 / interlace=0 / total-frames=153342 / level-idc=0 / high-tier=1 / uhd-bd=0 / ref=5 / no-allow-non-conformance / no-repeat-headers / annexb / no-aud / no-hrd / info / hash=0 / no-temporal-layers / open-gop / min-keyint=23 / keyint=250 / gop-lookahead=0 / bframes=8 / b-adapt=2 / b-pyramid / bframe-bias=0 / rc-lookahead=40 / lookahead-slices=0 / scenecut=40 / radl=0 / no-intra-refresh / ctu=64 / min-cu-size=8 / rect / amp / max-tu-size=32 / tu-inter-depth=3 / tu-intra-depth=3 / limit-tu=4 / rdoq-level=2 / dynamic-rd=0.00 / no-ssim-rd / signhide / no-tskip / nr-intra=0 / nr-inter=0 / no-constrained-intra / strong-intra-smoothing / max-merge=4 / limit-refs=1 / limit-modes / me=3 / subme=4 / merange=57 / temporal-mvp / weightp / weightb / no-analyze-src-pics / deblock=0:0 / sao / no-sao-non-deblock / rd=6 / no-early-skip / rskip / no-fast-intra / no-tskip-fast / no-cu-lossless / b-intra / no-splitrd-skip / rdpenalty=0 / psy-rd=2.00 / psy-rdoq=1.00 / no-rd-refine / no-lossless / cbqpoffs=0 / crqpoffs=0 / rc=abr / bitrate=14343 / qcomp=0.60 / qpstep=4 / stats-write=1 / stats-read=2 / cplxblur=20.0 / qblur=0.5 / ipratio=1.40 / pbratio=1.30 / aq-mode=1 / aq-strength=1.00 / cutree / zone-count=0 / no-strict-cbr / qg-size=32 / no-rc-grain / qpmax=69 / qpmin=0 / no-const-vbv / sar=1 / overscan=0 / videoformat=5 / range=0 / colorprim=2 / transfer=2 / colormatrix=2 / chromaloc=0 / display-window=0 / max-cll=0,0 / min-luma=0 / max-luma=255 / log2-max-poc-lsb=8 / vui-timing-info / vui-hrd-info / slices=1 / no-opt-qp-pps / no-opt-ref-list-length-pps / no-multi-pass-opt-rps / scenecut-bias=0.05 / no-opt-cu-delta-qp / no-aq-motion / no-hdr / no-hdr-opt / no-dhdr10-opt / analysis-reuse-level=5 / scale-factor=0 / refine-intra=0 / refine-inter=0 / refine-mv=0 / no-limit-sao / ctu-info=0 / no-lowpass-dct / refine-mv-type=0 / copy-pic=1
Default                     : Yes
Forced                      : No

Audio #1
ID                          : 2
Format                      : FLAC
Format/Info                 : Free Lossless Audio Codec
Codec ID                    : A_FLAC
Duration                    : 1 h 46 min
Bit rate mode               : Variable
Bit rate                    : 1 178 kb/s
Channel(s)                  : 6 channels
Channel positions           : Front: L C R, Side: L R, LFE
Sampling rate               : 48.0 kHz
Frame rate                  : 11.719 FPS (4096 SPF)
Bit depth                   : 16 bits
Stream size                 : 898 MiB (6%)
Writing library             : libFLAC 1.3.2 (UTC 2017-01-01)
Language                    : Catalan
Default                     : Yes
Forced                      : No

Audio #2
ID                          : 3
Format                      : FLAC
Format/Info                 : Free Lossless Audio Codec
Codec ID                    : A_FLAC
Duration                    : 1 h 46 min
Bit rate mode               : Variable
Bit rate                    : 1 182 kb/s
Channel(s)                  : 6 channels
Channel positions           : Front: L C R, Side: L R, LFE
Sampling rate               : 48.0 kHz
Frame rate                  : 11.719 FPS (4096 SPF)
Bit depth                   : 16 bits
Stream size                 : 901 MiB (6%)
Writing library             : libFLAC 1.3.2 (UTC 2017-01-01)
Language                    : Spanish
Default                     : No
Forced                      : No

Audio #3
ID                          : 4
Format                      : FLAC
Format/Info                 : Free Lossless Audio Codec
Codec ID                    : A_FLAC
Duration                    : 1 h 46 min
Bit rate mode               : Variable
Bit rate                    : 2 990 kb/s
Channel(s)                  : 6 channels
Channel positions           : Front: L C R, Side: L R, LFE
Sampling rate               : 48.0 kHz
Frame rate                  : 11.719 FPS (4096 SPF)
Bit depth                   : 24 bits
Stream size                 : 2.23 GiB (15%)
Writing library             : libFLAC 1.3.2 (UTC 2017-01-01)
Language                    : Japanese
Default                     : No
Forced                      : No

Text #1
ID                          : 5
Format                      : UTF-8
Codec ID                    : S_TEXT/UTF8
Codec ID/Info               : UTF-8 Plain Text
Duration                    : 1 h 44 min
Bit rate                    : 8 b/s
Count of elements           : 168
Stream size                 : 6.74 KiB (0%)
Title                       : forçats
Language                    : Catalan
Default                     : Yes
Forced                      : No

Text #2
ID                          : 6
Format                      : UTF-8
Codec ID                    : S_TEXT/UTF8
Codec ID/Info               : UTF-8 Plain Text
Duration                    : 1 h 45 min
Bit rate                    : 62 b/s
Count of elements           : 1412
Stream size                 : 48.2 KiB (0%)
Language                    : Catalan
Default                     : No
Forced                      : No

Text #3
ID                          : 7
Format                      : UTF-8
Codec ID                    : S_TEXT/UTF8
Codec ID/Info               : UTF-8 Plain Text
Duration                    : 1 h 44 min
Bit rate                    : 8 b/s
Count of elements           : 156
Stream size                 : 6.81 KiB (0%)
Title                       : forzados
Language                    : Spanish
Default                     : No
Forced                      : No

Text #4
ID                          : 8
Format                      : UTF-8
Codec ID                    : S_TEXT/UTF8
Codec ID/Info               : UTF-8 Plain Text
Duration                    : 1 h 45 min
Bit rate                    : 62 b/s
Count of elements           : 1393
Stream size                 : 48.2 KiB (0%)
Language                    : Spanish
Default                     : No
Forced                      : No

Menu
00:00:00.000                : en:00:00:00.000
00:01:34.094                : en:00:01:34.094
00:03:21.868                : en:00:03:21.868
00:05:13.271                : en:00:05:13.271
00:08:37.308                : en:00:08:37.308
00:12:11.314                : en:00:12:11.314
00:14:32.371                : en:00:14:32.371
00:17:22.500                : en:00:17:22.500
00:22:57.918                : en:00:22:57.918
00:27:05.624                : en:00:27:05.624
00:28:16.570                : en:00:28:16.570
00:29:53.542                : en:00:29:53.542
00:32:42.836                : en:00:32:42.836
00:37:26.995                : en:00:37:26.995
00:41:57.765                : en:00:41:57.765
00:44:30.334                : en:00:44:30.334
00:45:54.001                : en:00:45:54.001
00:48:28.656                : en:00:48:28.656
00:53:01.387                : en:00:53:01.387
00:56:53.869                : en:00:56:53.869
01:03:42.318                : en:01:03:42.318
01:06:03.793                : en:01:06:03.793
01:09:44.931                : en:01:09:44.931
01:12:41.816                : en:01:12:41.816
01:16:42.473                : en:01:16:42.473
01:21:21.710                : en:01:21:21.710
01:29:12.806                : en:01:29:12.806
01:32:51.858                : en:01:32:51.858
01:37:01.733                : en:01:37:01.733
01:41:19.615                : en:01:41:19.615


Descàrrega
(Permet streaming màxim 720p i àudio català.)


Últimament he estat pujant coses a un canal de telegram, també es pot trobar aquesta peli a
https://t.me/joinchat/AAAAAEuMgWt5kBHHC_P6Mw
O passeu-vos per https://t.me/Animelliure i pregunteu :P
 
Avatar de l’usuari
xagasa
Chishinchu
Chishinchu
Entrades: 3296
Membre des de: dl. 26 maig 2014, 10:16
Ubicació: Planeta M2

Re: Your Name [2160p - 4K]

dl. 16 jul. 2018, 20:59

Moltes gràcies Bilkoff.
Salutacions. :yeah:
 
Avatar de l’usuari
wachimiro
Moderadors
Moderadors
Entrades: 1767
Membre des de: dg. 19 feb. 2006, 16:53
Ubicació: China

Re: Your Name [2160p - 4K]

dt. 17 jul. 2018, 03:53

Me la baixo :), moltes gracies.
Si teniu cap problema per descarregar amb JDownloader feu servir aquesta versió i actualitzeu aquí la trobareu. -->>JDownloader <<--
 
Avatar de l’usuari
bitERROR
Webmaster
Webmaster
Entrades: 2815
Membre des de: dt. 16 des. 2003, 01:57
Ubicació: El cajón de las braguitas
Contacta:

Re: Your Name [2160p - 4K]

dt. 17 jul. 2018, 07:59

Ole, crack. Gràcies !
Imatge Imatge
 
Avatar de l’usuari
EnriqueTrumpet
Ishinchu
Ishinchu
Entrades: 28
Membre des de: dl. 12 juny 2017, 17:14

Re: Your Name [2160p - 4K]

dt. 28 ago. 2018, 18:34

Tinc catorze anys i uns amics del cole m'havien dit que vorega la peli, he descarregat esta release, passat a un disc dur i ficar-la en una tele de 4K (perque si no no es voria xd) l'ha vist i al dia seguen la vaig tornar a vore i m'ha encantat. Gracies per l'aport.
 
tuncket
Usuari
Usuari
Entrades: 3
Membre des de: dt. 25 juny 2013, 14:39

Re: Your Name [2160p - 4K]

ds. 09 feb. 2019, 14:48

Malauradament, aquesta pel·lícula no està ben codificada. Has fet servir la biblioteca x265 de 8 bits quan hauries de fer servir la de 10 bits (ja que la font original és HDR). El resultat és que es veu molt malament, amb colors apagats, gairebé en blanc i negre, tant en monitors HDR com SDR. No ho has notat quan l'has previsualitzat?

Crec que el millor seria eliminar-la i si tens la font original tornar a codificarla fent servir la biblioteca correcta.

Salut!
 
Avatar de l’usuari
Hakyra
Arashinchu
Arashinchu
Entrades: 131
Membre des de: dj. 06 set. 2018, 15:00

Re: Your Name [2160p - 4K]

dl. 18 març 2019, 17:47

tuncket ha escrit:
Malauradament, aquesta pel·lícula no està ben codificada. Has fet servir la biblioteca x265 de 8 bits quan hauries de fer servir la de 10 bits (ja que la font original és HDR). El resultat és que es veu molt malament, amb colors apagats, gairebé en blanc i negre, tant en monitors HDR com SDR. No ho has notat quan l'has previsualitzat?

Crec que el millor seria eliminar-la i si tens la font original tornar a codificarla fent servir la biblioteca correcta.

Salut!


Puc fer una versió en 4K i 10bit[Seria comprimida en qualitat], pero necesitaria els audios de aquesta Release per fer-la i no ser si tindria permís...
(AIxò si, feria servir un altre Rip del video)
 
Avatar de l’usuari
Bilkoff
Moderadors
Moderadors
Entrades: 796
Membre des de: dt. 05 oct. 2004, 19:22
Ubicació: Borriana

Re: Your Name [2160p - 4K]

dj. 21 març 2019, 17:12

El original no es 4k, els UHD BD son tots upscales. I també es diu que el HDR es fals.
 
Avatar de l’usuari
Hakyra
Arashinchu
Arashinchu
Entrades: 131
Membre des de: dj. 06 set. 2018, 15:00

Re: Your Name [2160p - 4K]

ds. 23 març 2019, 22:45

No té molt sentit treure al mercat una versió 4K si nomes es un Upscale i te un HDR simulat, seria com molt absurd... i a sobre perque recordo que la versió Japonesa del Blu-ray valia com 80 euros o per allà.
 
anolimo
Usuari
Usuari
Entrades: 16
Membre des de: dc. 30 maig 2018, 19:14

Re: Your Name [2160p - 4K]

dg. 07 abr. 2019, 22:58

Hakyra ha escrit:
No té molt sentit treure al mercat una versió 4K si nomes es un Upscale i te un HDR simulat, seria com molt absurd... i a sobre perque recordo que la versió Japonesa del Blu-ray valia com 80 euros o per allà.


Yo por nyaa he visto que mucha gente comenta esto... Al final si esto es verdad ¿aun así piensas subirla?.
 
Avatar de l’usuari
Hakyra
Arashinchu
Arashinchu
Entrades: 131
Membre des de: dj. 06 set. 2018, 15:00

Re: Your Name [2160p - 4K]

dg. 07 abr. 2019, 23:11

anolimo ha escrit:
Hakyra ha escrit:
No té molt sentit treure al mercat una versió 4K si nomes es un Upscale i te un HDR simulat, seria com molt absurd... i a sobre perque recordo que la versió Japonesa del Blu-ray valia com 80 euros o per allà.


Yo por nyaa he visto que mucha gente comenta esto... Al final si esto es verdad ¿aun así piensas subirla?.


Tengo que re-sincronizar los audios (Todos) y bajar-me una versión en 4K decente (Ya que la que tengo es un Rip Raro), y con lo de EVA, Inuyasha, La Uni por medio, y la empresa... voy a tardar, pero lo haré. (no se cuando)

Qui està connectat

Usuaris navegant en aquest fòrum: Cocheperdido i 11 visitants