Anime i manga en català

Moderadors: Steve Maister, wachimiro, Bilkoff

 
Andreuenc
Arashinchu
Arashinchu
Entrades: 105
Membre des de: dl. 04 set. 2017, 22:23

[YANDEX] La reina del mil.leni [DVDRIP][960x720][CT-JP]

dc. 29 ago. 2018, 12:27

Imatge

Títol original: 1000-nen Joou (Queen Millennia)
Any: 1982
Duració: 120 minuts
País: Japó
Director: Masayuki Akehi
Guionista: Leiji Matsumoto / Keisuke Fujikawa
Música: Kitaro
Fotografía: Leiji Matsumoto
Repartiment: Animació
Productora: Toei Animation
Génere: Animació

Sinopsi: Any 1999. La terra es trobava en una situació crítica; un planeta anomenat Lar-metal s'estava acostant a la Terra. Mentrestant, Yayoi Yukino va escoltar del Dr. Amamori de l'observatori de Tokyo de l'existència d'aquest planeta. Encara que ella era professora d'institut, treballava pel professor Amamori ja que apreciava els seus coneixements astronòmics. De fet Yayoi Yukino era la reina Mil.lenia que havia vingut de Lar-metal 1000 anys abans, i havia estat vigilant els éssers humans des de llavors.


Mediainfo:
Spoiler: mostra
General
Unique ID : 160862427939006444444905135649718265246 (0x7904FA0851FA9FB6F011EB35D7EFE59E)
Complete name : K:\Anime [Películas]\La reina del mil.leni [DVDRIP][960x720][L4.1][8b][CT-JP].mkv
Format : Matroska
Format version : Version 4 / Version 2
File size : 4.65 GiB
Duration : 2 h 0 min
Overall bit rate : 5 514 kb/s
Movie name : La reina del mil.leni
Encoded date : UTC 2018-08-19 10:24:40
Writing application : mkvmerge v25.0.0 ('Prog Noir') 64-bit
Writing library : libebml v1.3.6 + libmatroska v1.4.9
Attachments : EurostileQM.ttf / LegacySansQM-Italic.ttf / LegacySansQM.ttf

Video
ID : 1
Format : AVC
Format/Info : Advanced Video Codec
Format profile : High@L4.1
Format settings : CABAC / 12 Ref Frames
Format settings, CABAC : Yes
Format settings, ReFrames : 12 frames
Codec ID : V_MPEG4/ISO/AVC
Duration : 2 h 0 min
Bit rate : 5 000 kb/s
Width : 960 pixels
Height : 720 pixels
Display aspect ratio : 4:3
Frame rate mode : Constant
Frame rate : 23.976 FPS
Color space : YUV
Chroma subsampling : 4:2:0
Bit depth : 8 bits
Scan type : Progressive
Bits/(Pixel*Frame) : 0.302
Stream size : 4.22 GiB (91%)
Writing library : x264 core 152 r2851kMod ba24899
Encoding settings : cabac=1 / ref=12 / deblock=1:1:1 / analyse=0x3:0x133 / me=umh / subme=10 / psy=1 / fade_compensate=0.00 / psy_rd=1.00:0.00 / mixed_ref=1 / me_range=24 / chroma_me=1 / trellis=2 / 8x8dct=1 / cqm=0 / deadzone=21,11 / fast_pskip=1 / chroma_qp_offset=-2 / threads=7 / lookahead_threads=1 / sliced_threads=0 / nr=0 / decimate=1 / interlaced=0 / bluray_compat=0 / constrained_intra=0 / bframes=10 / b_pyramid=2 / b_adapt=2 / b_bias=0 / direct=3 / weightb=1 / open_gop=0 / weightp=2 / keyint=250 / keyint_min=25 / scenecut=40 / intra_refresh=0 / rc_lookahead=60 / rc=2pass / mbtree=1 / bitrate=5000 / ratetol=1.0 / qcomp=0.60 / qpmin=0 / qpmax=69 / qpstep=4 / cplxblur=20.0 / qblur=0.5 / ip_ratio=1.40 / aq=1:0.60
Language : English
Default : Yes
Forced : No

Audio #1
ID : 2
Format : MPEG Audio
Format version : Version 1
Format profile : Layer 3
Codec ID : A_MPEG/L3
Codec ID/Hint : MP3
Duration : 2 h 0 min
Bit rate mode : Constant
Bit rate : 256 kb/s
Channel(s) : 2 channels
Sampling rate : 48.0 kHz
Frame rate : 41.667 FPS (1152 SPF)
Compression mode : Lossy
Stream size : 221 MiB (5%)
Title : Català MP3 2.0
Writing library : LAME3.99.5
Language : Catalan
Default : Yes
Forced : No

Audio #2
ID : 3
Format : MPEG Audio
Format version : Version 1
Format profile : Layer 3
Codec ID : A_MPEG/L3
Codec ID/Hint : MP3
Duration : 2 h 0 min
Bit rate mode : Constant
Bit rate : 256 kb/s
Channel(s) : 2 channels
Sampling rate : 48.0 kHz
Frame rate : 41.667 FPS (1152 SPF)
Compression mode : Lossy
Stream size : 221 MiB (5%)
Title : Japonès MP3 2.0
Writing library : LAME3.99.5
Language : Japanese
Default : No
Forced : No


Informació Básica

Font de vídeo: DVD-RIP 960x720
Contenidor: mkv
Códec: x264 8 Bits
Tamany: 4.65 GB
Tasa de bits total: 5 514 Kbps
Resolució: 960x720
Audio 1: Català MP3 256 Kbps 2.0
Audio 2: Japonès MP3 256 Kbps 2.0
Subtítols: No té
Encoder, Montador, Sincronitzador: Andreuenc
Uploader: Andreuenc

Nota:

Spoiler: mostra
La font de video prové d' una versió DVD-RIP 960x720 japonesa que vaig descarregar via Torrent, els audios català i japonés son de la versió de Sondela89, però els vaig netejar. Vaig haver de sincronitzar els audios per a que encaixes.


LINK DE DESCARREGA (LCRYPT DLC):

Contrasenya: Andreuenc
 
Avatar de l’usuari
xagasa
Chishinchu
Chishinchu
Entrades: 3604
Membre des de: dl. 26 maig 2014, 10:16
Ubicació: Planeta M2

Re: [YANDEX] La reina del mil.leni [DVDRIP][960x720][CT-JP]

dc. 29 ago. 2018, 15:23

Caram quina sort haver trobat una versió així.
Jo portava dies buscant sense exit.

-Moltes gràcies. Espero que segueixis amb treballs tan bons com aquests.
Salutacions. :yeah:
 
Avatar de l’usuari
Steve Maister
Moderadors
Moderadors
Entrades: 2002
Membre des de: dc. 05 març 2008, 18:16
Contacta:

Re: [YANDEX] La reina del mil.leni [DVDRIP][960x720][CT-JP]

dj. 30 ago. 2018, 09:43

Moltes gràcies per la nova versió!! :yeah:
Imatge
Anime-Planet.com - anime | manga | watch anime online

Qui està connectat

Usuaris navegant en aquest fòrum: No hi ha cap usuari registrat i 3 visitants