Anime i manga en català

Moderadors: Steve Maister, wachimiro, Bilkoff

 
Andreuenc
Arashinchu
Arashinchu
Entrades: 98
Membre des de: dl. 04 set. 2017, 22:23

[YANDEX] El vent d' amnèsia [DVDRIP][960x720][CT-JP][ct]

dc. 29 ago. 2018, 12:51

Imatge

Títol original: Kaze no Na wa Amunejia (El vent d' amnèsia)
Any: 1990
Duració: 80 minuts
País: Japó
Director: Kazuo Yamazaki
Guionista: Kazuo Yamazaki / Kenji Kurata / Yoshiaki Kawajiri
Música: Hidenobu Takimoto / Kazuhijo Toyama / Toshiyama Takenobu
Fotografía: Yoshitaka Amano
Repartiment: Animació
Productora: Madhouse
Génere: Animació

Sinopsi: Any 1999, l'amnèsia ha descendit al món... i tot el món ha oblidat qui és i com usar les eines de les quals depèn la societat d'avui dia. Ara, dos anys més tard, en Wataru, animat pel seu amic Johnny, intenta fer cobrar sentit a un món que de cop i volta s'ha tornat boig.


Mediainfo:
Spoiler: mostra
General
Unique ID : 208815089124877175343350332984923527167 (0x9D1852C3B196F833E9EA26CE02D417FF)
Complete name : K:\Anime [Películas]\El vent d' amnèsia [DVDRIP][960x720][L4.1][8b][CT-JP][ct].mkv
Format : Matroska
Format version : Version 4 / Version 2
File size : 2.87 GiB
Duration : 1 h 21 min
Overall bit rate : 5 040 kb/s
Movie name : El vent d' amnèsia
Encoded date : UTC 2018-08-17 10:58:41
Writing application : mkvmerge v25.0.0 ('Prog Noir') 64-bit
Writing library : libebml v1.3.6 + libmatroska v1.4.9

Video
ID : 1
Format : AVC
Format/Info : Advanced Video Codec
Format profile : High@L4.1
Format settings : CABAC / 12 Ref Frames
Format settings, CABAC : Yes
Format settings, ReFrames : 12 frames
Codec ID : V_MPEG4/ISO/AVC
Duration : 1 h 19 min
Bit rate : 5 000 kb/s
Width : 960 pixels
Height : 720 pixels
Display aspect ratio : 4:3
Frame rate mode : Constant
Frame rate : 23.976 FPS
Color space : YUV
Chroma subsampling : 4:2:0
Bit depth : 8 bits
Scan type : Progressive
Bits/(Pixel*Frame) : 0.302
Stream size : 2.79 GiB (97%)
Writing library : x264 core 152 r2851kMod ba24899
Encoding settings : cabac=1 / ref=12 / deblock=1:1:1 / analyse=0x3:0x133 / me=umh / subme=10 / psy=1 / fade_compensate=0.00 / psy_rd=1.00:0.00 / mixed_ref=1 / me_range=24 / chroma_me=1 / trellis=2 / 8x8dct=1 / cqm=0 / deadzone=21,11 / fast_pskip=1 / chroma_qp_offset=-2 / threads=7 / lookahead_threads=1 / sliced_threads=0 / nr=0 / decimate=1 / interlaced=0 / bluray_compat=0 / constrained_intra=0 / bframes=10 / b_pyramid=2 / b_adapt=2 / b_bias=0 / direct=3 / weightb=1 / open_gop=0 / weightp=2 / keyint=250 / keyint_min=25 / scenecut=40 / intra_refresh=0 / rc_lookahead=60 / rc=2pass / mbtree=1 / bitrate=5000 / ratetol=1.0 / qcomp=0.60 / qpmin=0 / qpmax=69 / qpstep=4 / cplxblur=20.0 / qblur=0.5 / ip_ratio=1.40 / aq=1:0.60
Language : English
Default : Yes
Forced : No

Audio #1
ID : 2
Format : AAC
Format/Info : Advanced Audio Codec
Format profile : HE-AAC / LC
Format settings : Explicit
Codec ID : A_AAC-2
Duration : 1 h 21 min
Bit rate : 63.2 kb/s
Channel(s) : 2 channels
Channel positions : Front: L R
Sampling rate : 44.1 kHz / 22.05 kHz
Frame rate : 21.533 FPS (1024 SPF)
Compression mode : Lossy
Delay relative to video : 31 ms
Stream size : 36.8 MiB (1%)
Title : Català AAC 2.0
Language : Catalan
Default : Yes
Forced : No

Audio #2
ID : 3
Format : AAC
Format/Info : Advanced Audio Codec
Format profile : HE-AAC / LC
Format settings : Explicit
Codec ID : A_AAC-2
Duration : 1 h 21 min
Bit rate : 64.0 kb/s
Channel(s) : 2 channels
Channel positions : Front: L R
Sampling rate : 48.0 kHz / 24.0 kHz
Frame rate : 23.438 FPS (1024 SPF)
Compression mode : Lossy
Delay relative to video : 32 ms
Stream size : 37.2 MiB (1%)
Title : Japonès AAC 2.0
Language : Japanese
Default : No
Forced : No

Text
ID : 4
Format : UTF-8
Codec ID : S_TEXT/UTF8
Codec ID/Info : UTF-8 Plain Text
Duration : 1 h 16 min
Bit rate : 43 b/s
Count of elements : 546
Stream size : 24.4 KiB (0%)
Title : Català Complets [SRT]
Language : Catalan
Default : No
Forced : No


Informació Básica

Font de vídeo: DVD-RIP 960x720
Contenidor: mkv
Códec: x264 8 Bits
Tamany: 2.87 GB
Tasa de bits total: 5 040 Kbps
Resolució: 960x720
Audio 1: Català AAC 2.0
Audio 2: Japonès AAC 2.0
Subtítols: Català Complets [SRT]
Encoder, Montador, Sincronitzador: Andreuenc
Uploader: Andreuenc

Nota:

Spoiler: mostra
La font de video prové d' una versió DVD-RIP 960x720 rusa que vaig descarregar via Torrent, els audios català i japonés son de la versió de bitERROR, però els vaig netejar. Vaig haver de sincronitzar els audios per a que encaixes.


LINK DE DESCARREGA (LCRYPT DLC):

Contrasenya: Andreuenc
 
Avatar de l’usuari
xagasa
Chishinchu
Chishinchu
Entrades: 3395
Membre des de: dl. 26 maig 2014, 10:16
Ubicació: Planeta M2

Re: [YANDEX] El vent d' amnèsia [DVDRIP][960x720][CT-JP][ct]

dc. 29 ago. 2018, 15:21

Bona aportació Andreuenc.
Moltes gràcies. :yeah:
 
Avatar de l’usuari
Heni
Arashinchu
Arashinchu
Entrades: 106
Membre des de: dt. 10 juny 2014, 11:50

Re: [YANDEX] El vent d' amnèsia [DVDRIP][960x720][CT-JP][ct]

dv. 31 ago. 2018, 22:37

Merci! Sembla interessant. Li farem una ullada :D
 
Avatar de l’usuari
Sheikah
Sushinchu
Sushinchu
Entrades: 596
Membre des de: ds. 07 ago. 2004, 12:52
Ubicació: Catalunya
Contacta:

Re: [YANDEX] El vent d' amnèsia [DVDRIP][960x720][CT-JP][ct]

dg. 16 set. 2018, 02:11

Merci! ^^

Edito: Ja no funciona...
amiboshi.cat · cançons d'anime en català
 
Avatar de l’usuari
xagasa
Chishinchu
Chishinchu
Entrades: 3395
Membre des de: dl. 26 maig 2014, 10:16
Ubicació: Planeta M2

Re: [YANDEX] El vent d' amnèsia [DVDRIP][960x720][CT-JP][ct]

dg. 16 set. 2018, 02:43

Sheikah ha escrit:
Merci! ^^

Edito: Ja no funciona...


Si que funciona,
Dona un click al simbol que hi ha a sobre de la contraseña i tingues el jdownloader obert.
Veuras un recuadre verd. Li dones un click i et demanara si permets agregar el contanidor de enllaços a jdownloader.
Li fas un click i a descarregar.
 
Avatar de l’usuari
Sheikah
Sushinchu
Sushinchu
Entrades: 596
Membre des de: ds. 07 ago. 2004, 12:52
Ubicació: Catalunya
Contacta:

Re: [YANDEX] El vent d' amnèsia [DVDRIP][960x720][CT-JP][ct]

dg. 16 set. 2018, 02:46

Sí, fins aquí hi arribo xD, però un cop al Jdownloader em diu que no es troba el fitxer al server.
amiboshi.cat · cançons d'anime en català
 
Avatar de l’usuari
wachimiro
Moderadors
Moderadors
Entrades: 1795
Membre des de: dg. 19 feb. 2006, 16:53
Ubicació: China

Re: [YANDEX] El vent d' amnèsia [DVDRIP][960x720][CT-JP][ct]

dg. 16 set. 2018, 14:23

Actualitza el Jdownloader, a mi em funciona.
Si teniu cap problema per descarregar amb JDownloader feu servir aquesta versió i actualitzeu aquí la trobareu. -->>JDownloader <<--
 
Avatar de l’usuari
Sheikah
Sushinchu
Sushinchu
Entrades: 596
Membre des de: ds. 07 ago. 2004, 12:52
Ubicació: Catalunya
Contacta:

Re: [YANDEX] El vent d' amnèsia [DVDRIP][960x720][CT-JP][ct]

dl. 17 set. 2018, 12:14

Doncs sí, he actualitzat el Jdownloader, l'he tornat a carregar i ja em funciona. Moltes gràcies! ^^
amiboshi.cat · cançons d'anime en català

Qui està connectat

Usuaris navegant en aquest fòrum: No hi ha cap usuari registrat i 12 visitants