Anime i manga en català

Moderadors: Steve Maister, wachimiro, Bilkoff

 
Avatar de l’usuari
fe80grau
Usuari
Usuari
Entrades: 21
Membre des de: dl. 28 març 2016, 01:32

[Drive] Bola de Drac Super Broly 1080p h264

dj. 30 maig 2019, 13:08

Hola,
comparto el ripeo del Blu-Ray de la peli Bola de Drac Super: Broly
**El audio está comprimido según lo indicado abajo, pero se ha extraído de la pista DTS MA del blu-ray original

https://drive.google.com/open?id=16deQv ... 2qfJ-4IGYz

- BDS Broly.mp4
Format                           : MPEG-4
Format profile                   : Base Media
Codec ID                         : isom
File size                        : 2.51 GiB
Duration                         : 1h 42mn
Overall bit rate                 : 3 508 Kbps

Video
ID                               : 1
Format                           : AVC
Format/Info                      : Advanced Video Codec
Format profile                   : High@L4.0
Format settings, CABAC           : Yes
Format settings, ReFrames        : 4 frames
Codec ID                         : avc1
Codec ID/Info                    : Advanced Video Coding
Duration                         : 1h 42mn
Bit rate mode                    : Variable
Bit rate                         : 3 345 Kbps
Width                            : 1 920 pixels
Height                           : 1 080 pixels
Display aspect ratio             : 16:9
Frame rate mode                  : Constant
Frame rate                       : 23.976 fps
Color space                      : YUV
Chroma subsampling               : 4:2:0
Bit depth                        : 8 bits
Scan type                        : Progressive
Bits/(Pixel*Frame)               : 0.067
Stream size                      : 2.39 GiB (95%)
Writing library                  : x264 core 144 r2525 40bb568
Encoding settings                : cabac=1 / ref=3 / deblock=1:0:0 / analyse=0x3:0x113 / me=hex / subme=7 / psy=1 / psy_rd=1.00:0.00 / mixed_ref=1 / me_range=16 / chroma_me=1 / trellis=1 / 8x8dct=1 / cqm=0 / deadzone=21,11 / fast_pskip=1 / chroma_qp_offset=-2 / threads=6 / lookahead_threads=1 / sliced_threads=0 / nr=0 / decimate=1 / interlaced=0 / bluray_compat=0 / constrained_intra=0 / bframes=3 / b_pyramid=2 / b_adapt=1 / b_bias=0 / direct=1 / weightb=1 / open_gop=0 / weightp=2 / keyint=250 / keyint_min=23 / scenecut=40 / intra_refresh=0 / rc_lookahead=40 / rc=crf / mbtree=1 / crf=23.0 / qcomp=0.60 / qpmin=0 / qpmax=69 / qpstep=4 / ip_ratio=1.40 / aq=1:1.00


Audio
ID                               : 2
Format                           : AAC
Format/Info                      : Advanced Audio Codec
Format profile                   : LC
Codec ID                         : 40
Duration                         : 1h 39mn
Bit rate mode                    : Constant
Bit rate                         : 160 Kbps
Channel(s)                       : 6 channels
Channel positions                : Front: L C R, Side: L R, LFE
Sampling rate                    : 48.0 KHz
Compression mode                 : Lossy
Stream size                      : 114 MiB (4%)
Language                         : Catalan
 
kogoro mouri
Usuari
Usuari
Entrades: 6
Membre des de: dt. 14 abr. 2009, 21:39

Re: [Drive] Bola de Drac Super Broly 1080p h264

dj. 30 maig 2019, 14:12

muchisimas gracias por subirla en catalan tan pronto.habria alguna posibilidad de subir la pista suelta en dts ma en catalan ?.saludos.
 
cubatilles
Usuari
Usuari
Entrades: 6
Membre des de: dc. 10 ago. 2011, 23:04

Re: [Drive] Bola de Drac Super Broly 1080p h264

dj. 30 maig 2019, 20:05

Hola @fe80grau,

No em convenç gaire la qualitat del rip que has penjat. Com que aquest matí m'he fet el meu propi montatge agafant un rip de exvagos espanyol (un ripper que es diu "yamil") i afegint l'audio català AC3 de un FULLDVD que he pogut aconseguir, comparteixo també el meu montatge.

Als qui pugui interessar, el vídeo és HEVC.h265 @1080p, 23,976FPS. Conté els audios català AC3, Espanyool AC3 i Japonès AC3, ademés de subtítols forçats, i espanyol i català.

La diferència amb la release d'en fe80grau, és que el meu rip és h265, un códec molt més modern que l'AVC.h264, que permet donar aproximadament la mateixa qualitat que h264 amb la meitat d'espai. Per tant, tot i que les releases son de tamanys similars, la que comparteixo dóna més qualitat.
No pretenc criticar l'altra release ni res eh? Només comparteixo un montatge que m'he fet per mí per donar una alternativa.

L'enllaç Google Drive de la peli (la deixaré penjada uns dies, quan em convingui l'esborraré):
https://drive.google.com/file/d/1ooOzwo ... sp=sharing

Aquí hi ha el mediainfo:
General
Unique ID : 184680749692258544111240530656068357135 (0x8AF037F610EACCBE1E6C6E46C2E7CC0F)
Complete name : D:\Downloads\Dr4g0nB4llHD1080pX265 yamil\Dragon Ball Super Broly (2018).mkv
Format : Matroska
Format version : Version 4
File size : 2.82 GiB
Duration : 1 h 39 min
Overall bit rate : 4 049 kb/s
Movie name : Montado por yamil
Encoded date : UTC 2019-05-30 10:55:54
Writing application : mkvmerge v30.0.0 ('Interstellar') 64-bit
Writing library : libebml v1.3.6 + libmatroska v1.4.9
Attachments : arialbd.ttf / FORTE.TTF / FORTE_0.TTF / impact.ttf / YOUTTX.ttf

Video
ID : 1
Format : HEVC
Format/Info : High Efficiency Video Coding
Format profile : Main 10@L5.1@Main
Codec ID : V_MPEGH/ISO/HEVC
Duration : 1 h 39 min
Bit rate : 2 702 kb/s
Width : 1 920 pixels
Height : 1 080 pixels
Display aspect ratio : 16:9
Frame rate mode : Constant
Frame rate : 23.976 (23976/1000) FPS
Color space : YUV
Chroma subsampling : 4:2:0
Bit depth : 10 bits
Bits/(Pixel*Frame) : 0.054
Stream size : 1.88 GiB (67%)
Writing library : x265 2.8+74-fd517ae68f93:[Windows][GCC 6.3.0][64 bit] 10bit
Encoding settings : cpuid=1111039 / frame-threads=3 / numa-pools=8 / wpp / no-pmode / no-pme / no-psnr / no-ssim / log-level=2 / input-csp=1 / input-res=1920x1080 / interlace=0 / total-frames=0 / level-idc=51 / high-tier=1 / uhd-bd=0 / ref=3 / no-allow-non-conformance / no-repeat-headers / annexb / no-aud / no-hrd / info / hash=0 / no-temporal-layers / no-open-gop / min-keyint=23 / keyint=250 / gop-lookahead=0 / bframes=4 / b-adapt=2 / b-pyramid / bframe-bias=0 / rc-lookahead=20 / lookahead-slices=6 / scenecut=40 / radl=0 / no-intra-refresh / ctu=64 / min-cu-size=8 / no-rect / no-amp / max-tu-size=32 / tu-inter-depth=1 / tu-intra-depth=1 / limit-tu=0 / rdoq-level=0 / dynamic-rd=0.00 / no-ssim-rd / signhide / no-tskip / nr-intra=0 / nr-inter=0 / no-constrained-intra / strong-intra-smoothing / max-merge=2 / limit-refs=3 / no-limit-modes / me=1 / subme=2 / merange=57 / temporal-mvp / weightp / no-weightb / no-analyze-src-pics / deblock=0:0 / sao / no-sao-non-deblock / rd=3 / no-early-skip / rskip / no-fast-intra / no-tskip-fast / no-cu-lossless / no-b-intra / no-splitrd-skip / rdpenalty=0 / psy-rd=2.00 / psy-rdoq=0.00 / no-rd-refine / no-lossless / cbqpoffs=0 / crqpoffs=0 / rc=abr / bitrate=2700 / qcomp=0.60 / qpstep=4 / stats-write=0 / stats-read=2 / cplxblur=20.0 / qblur=0.5 / ipratio=1.40 / pbratio=1.30 / aq-mode=1 / aq-strength=1.00 / cutree / zone-count=0 / no-strict-cbr / qg-size=32 / no-rc-grain / qpmax=69 / qpmin=0 / no-const-vbv / sar=0 / overscan=0 / videoformat=5 / range=0 / colorprim=2 / transfer=2 / colormatrix=2 / chromaloc=0 / display-window=0 / max-cll=0,0 / min-luma=0 / max-luma=1023 / log2-max-poc-lsb=8 / vui-timing-info / vui-hrd-info / slices=1 / no-opt-qp-pps / no-opt-ref-list-length-pps / no-multi-pass-opt-rps / scenecut-bias=0.05 / no-opt-cu-delta-qp / no-aq-motion / no-hdr / no-hdr-opt / no-dhdr10-opt / no-idr-recovery-sei / analysis-reuse-level=5 / scale-factor=0 / refine-intra=0 / refine-inter=0 / refine-mv=0 / no-limit-sao / ctu-info=0 / no-lowpass-dct / refine-mv-type=0 / copy-pic=1 / max-ausize-factor=1.0 / no-dynamic-refine / no-single-sei
Language : Spanish
Default : Yes
Forced : No

Audio #1
ID : 2
Format : AC-3
Format/Info : Audio Coding 3
Commercial name : Dolby Digital
Codec ID : A_AC3
Duration : 1 h 39 min
Bit rate mode : Constant
Bit rate : 448 kb/s
Channel(s) : 6 channels
Channel layout : L R C LFE Ls Rs
Sampling rate : 48.0 kHz
Frame rate : 31.250 FPS (1536 SPF)
Bit depth : 16 bits
Compression mode : Lossy
Stream size : 320 MiB (11%)
Language : Catalan
Service kind : Complete Main
Default : Yes
Forced : No

Audio #2
ID : 3
Format : AC-3
Format/Info : Audio Coding 3
Commercial name : Dolby Digital
Codec ID : A_AC3
Duration : 1 h 39 min
Bit rate mode : Constant
Bit rate : 448 kb/s
Channel(s) : 6 channels
Channel layout : L R C LFE Ls Rs
Sampling rate : 48.0 kHz
Frame rate : 31.250 FPS (1536 SPF)
Bit depth : 16 bits
Compression mode : Lossy
Stream size : 320 MiB (11%)
Language : Spanish
Service kind : Complete Main
Default : No
Forced : No

Audio #3
ID : 4
Format : AC-3
Format/Info : Audio Coding 3
Commercial name : Dolby Digital
Codec ID : A_AC3
Duration : 1 h 39 min
Bit rate mode : Constant
Bit rate : 448 kb/s
Channel(s) : 6 channels
Channel layout : L R C LFE Ls Rs
Sampling rate : 48.0 kHz
Frame rate : 31.250 FPS (1536 SPF)
Bit depth : 16 bits
Compression mode : Lossy
Stream size : 320 MiB (11%)
Language : Japanese
Service kind : Complete Main
Default : No
Forced : No

Text #1
ID : 5
Format : UTF-8
Codec ID : S_TEXT/UTF8
Codec ID/Info : UTF-8 Plain Text
Duration : 1 h 38 min
Bit rate : 0 b/s
Count of elements : 7
Stream size : 91.0 Bytes (0%)
Title : Forzados
Language : Spanish
Default : Yes
Forced : Yes

Text #2
ID : 6
Format : ASS
Codec ID : S_TEXT/ASS
Codec ID/Info : Advanced Sub Station Alpha
Duration : 1 h 35 min
Bit rate : 73 b/s
Count of elements : 912
Compression mode : Lossless
Stream size : 51.2 KiB (0%)
Language : Catalan
Default : No
Forced : No

Text #3
ID : 7
Format : UTF-8
Codec ID : S_TEXT/UTF8
Codec ID/Info : UTF-8 Plain Text
Duration : 1 h 38 min
Bit rate : 53 b/s
Count of elements : 1044
Stream size : 38.5 KiB (0%)
Language : Spanish
Default : No
Forced : No

Menu
00:00:00.000 : :Chapter 1
00:08:25.088 : :Chapter 2
00:15:30.930 : :Chapter 3
00:24:24.380 : :Chapter 4
00:31:25.801 : :Chapter 5
00:39:07.846 : :Chapter 6
00:48:49.427 : :Chapter 7
00:59:17.763 : :Chapter 8
01:07:11.528 : :Chapter 9
01:17:00.074 : :Chapter 10
01:24:40.951 : :Chapter 11
01:31:59.973 : :Chapter 12

Salutacions i visca Bola de Drac!
P.D.: No pretenc cap reconeixement per aquesta release, ot el mèrit és del tal yamil que és qui l'ha fet, jo només he eliminat el DTS espanyol i afegit l'AC3 català.
 
Avatar de l’usuari
Broly
Usuari
Usuari
Entrades: 6
Membre des de: dt. 30 gen. 2018, 22:57

Re: [Drive] Bola de Drac Super Broly 1080p h264

dj. 30 maig 2019, 21:17

Moltes gràcies a tots dos, cracks!
 
Kaisser
Usuari
Usuari
Entrades: 16
Membre des de: dj. 12 oct. 2017, 12:42

Re: [Drive] Bola de Drac Super Broly 1080p h264

dj. 30 maig 2019, 21:40

Moltes gràcies per la feina companys :yeah:.

Salut!
 
kamui412
Usuari
Usuari
Entrades: 5
Membre des de: dj. 23 feb. 2017, 23:42

Re: [Drive] Bola de Drac Super Broly 1080p h264

dj. 30 maig 2019, 22:21

Es increible la feina que feu, moltes gràcies, les dues versions son excel.lents. Quan sorti el bluray japones amb el ending en japones i els credits en japones algú l´ha podra penjar per descarregar???
 
Avatar de l’usuari
tato25
Ryushinchu
Ryushinchu
Entrades: 2734
Membre des de: dg. 24 jul. 2005, 16:21
Contacta:

Re: [Drive] Bola de Drac Super Broly 1080p h264

dv. 31 maig 2019, 04:18

cubatilles ha escrit:
jo només he eliminat el DTS espanyol i afegit l'AC3 català.

I els subs en català .ass del meu muntatge (shinsuv2) Dragon Ball Super - Broly - WEB-DL 1080p (HEVC+FLAC 5.1) (VOSC-VOSE) [A1919E1B], :xiulant:

PD: El tono es correcto en el BD de SV.
tato25 l’ha editat per darrera vegada el dia: dl. 03 juny 2019, 03:26, en total s’ha editat 1 vegada.
 
Avatar de l’usuari
Frydivx
Sanshinchu
Sanshinchu
Entrades: 326
Membre des de: dc. 23 maig 2012, 17:59

Re: [Drive] Bola de Drac Super Broly 1080p h264

dv. 31 maig 2019, 13:41

Es nota un ou quan parlen, la primera és com un to més greu, la segona es com més realista donada la situació de l'escena.
Aquest audio corregit el tens ficat en el teu muntatge tato25?

Salut!
 
DV2FOX
Usuari
Usuari
Entrades: 6
Membre des de: dg. 02 feb. 2014, 16:56

Re: [Drive] Bola de Drac Super Broly 1080p h264

dv. 31 maig 2019, 13:41

MERCI per l'aport COMPLET!!

Lo que no entenc com un uploader (Yamil en aquest sentit pero podria ser qualsevol), que podria haver-hi posat TOTS els audios i subs (i repeteixo, TOTS), només prefereixi posar-ne'n 2 (i aixo que diu que no te res en contra de l'idioma, ojo) quant posant-ne 3 podria fer un aport COMPLET I TRENCADOR (En el bon sentit, eh), fent que el uploader es pengés totes les medalles d'honor etc

Ara mateix he vist en aquest Thread en que estém que una pista d'audio son uns 330MB poray?...No crec que per aquest tamany una persona (Yamil en aquest cas) tingui que dir "l'aport es dispararia cap al cel en el pés (si possés el 3er audio)" (Vamos, 5,3GB a quant?..5,6 5,7GB?...) segons el post del Yamil a una altre pagina que segueixo..

"La noche me confunde" i tot aixo també

REPETEIXO AMABLEMENT: MOLTES GRACIES PEL APORT!!
 
Kaisser
Usuari
Usuari
Entrades: 16
Membre des de: dj. 12 oct. 2017, 12:42

Re: [Drive] Bola de Drac Super Broly 1080p h264

dv. 31 maig 2019, 15:38

tato25 ha escrit:
cubatilles ha escrit:
jo només he eliminat el DTS espanyol i afegit l'AC3 català.

I els subs en català .ass del meu muntatge (shinsuv2) Dragon Ball Super - Broly - WEB-DL 1080p (HEVC+FLAC 5.1) (VOSC-VOSE) [A1919E1B], :xiulant:

PD: Por cierto, ojo con el tono de voces del audio catalán. Selecta lo ha vuelto a hacer.

Os dejo una muestra. de 82s. Un 704*396p HEVC con 2 pistas en flac 5.1 en catalán. La primera corresponde al audio original montado en el DVD/BD de Selecta Vision, la segunda, la misma pero corrigiéndole el tono:

Pues si que es verdad que se nota un tono distinto entre ambos audios. Yo soy de los que tiene oreja en vez de oído y mi sensibilidad es muy mala pero incluso noto la diferencia en la música de fondo, quizás más que en las voces y todo.

Saludos!
 
DV2FOX
Usuari
Usuari
Entrades: 6
Membre des de: dg. 02 feb. 2014, 16:56

Re: [Drive] Bola de Drac Super Broly 1080p h264

dv. 31 maig 2019, 16:41

@Cubatilles: Els subs en castella estan perfectament sincronitzats, pero el catala esta molt mal sincronitzat, per exemple al 39:12 es pot apreciar a l'escena de menjar snacks. Nomes ho informo per veure si pots intentar arreglar-ho. De nou, gracies per l'aport!!
 
Avatar de l’usuari
Adrià
Ryushinchu
Ryushinchu
Entrades: 2510
Membre des de: dt. 24 jul. 2012, 21:11

Re: [Drive] Bola de Drac Super Broly 1080p h264

dv. 31 maig 2019, 17:24

DV2FOX ha escrit:
MERCI per l'aport COMPLET!!

Lo que no entenc com un uploader (Yamil en aquest sentit pero podria ser qualsevol), que podria haver-hi posat TOTS els audios i subs (i repeteixo, TOTS), només prefereixi posar-ne'n 2 (i aixo que diu que no te res en contra de l'idioma, ojo) quant posant-ne 3 podria fer un aport COMPLET I TRENCADOR (En el bon sentit, eh), fent que el uploader es pengés totes les medalles d'honor etc

Ara mateix he vist en aquest Thread en que estém que una pista d'audio son uns 330MB poray?...No crec que per aquest tamany una persona (Yamil en aquest cas) tingui que dir "l'aport es dispararia cap al cel en el pés (si possés el 3er audio)" (Vamos, 5,3GB a quant?..5,6 5,7GB?...) segons el post del Yamil a una altre pagina que segueixo..

"La noche me confunde" i tot aixo també

REPETEIXO AMABLEMENT: MOLTES GRACIES PEL APORT!!


A aquest usuari se li sua el català, gallec i basc... Així que a mi ja no em sorprèn.
Instal·lador MiPony
Instal·lador JDownloader2
Instal·lador eMule
Instal·lador μTorrent 2.2.1 (recomanat)

DESCARREGAR:
JD2 obert - Clicar a CNL2 - Apareixen links al JD2 - Descarregar.
 
Avatar de l’usuari
The_IronHide
Arashinchu
Arashinchu
Entrades: 81
Membre des de: dl. 02 març 2015, 19:34

Re: [Drive] Bola de Drac Super Broly 1080p h264

dv. 31 maig 2019, 17:30

cubatilles ha escrit:
Hola @fe80grau,

No em convenç gaire la qualitat del rip que has penjat. Com que aquest matí m'he fet el meu propi montatge agafant un rip de exvagos espanyol (un ripper que es diu "yamil") i afegint l'audio català AC3 de un FULLDVD que he pogut aconseguir, comparteixo també el meu montatge.

Als qui pugui interessar, el vídeo és HEVC.h265 @1080p, 23,976FPS. Conté els audios català AC3, Espanyool AC3 i Japonès AC3, ademés de subtítols forçats, i espanyol i català.

La diferència amb la release d'en fe80grau, és que el meu rip és h265, un códec molt més modern que l'AVC.h264, que permet donar aproximadament la mateixa qualitat que h264 amb la meitat d'espai. Per tant, tot i que les releases son de tamanys similars, la que comparteixo dóna més qualitat.
No pretenc criticar l'altra release ni res eh? Només comparteixo un montatge que m'he fet per mí per donar una alternativa.

L'enllaç Google Drive de la peli (la deixaré penjada uns dies, quan em convingui l'esborraré):
https://drive.google.com/file/d/1ooOzwo ... sp=sharing

Aquí hi ha el mediainfo:
General
Unique ID : 184680749692258544111240530656068357135 (0x8AF037F610EACCBE1E6C6E46C2E7CC0F)
Complete name : D:\Downloads\Dr4g0nB4llHD1080pX265 yamil\Dragon Ball Super Broly (2018).mkv
Format : Matroska
Format version : Version 4
File size : 2.82 GiB
Duration : 1 h 39 min
Overall bit rate : 4 049 kb/s
Movie name : Montado por yamil
Encoded date : UTC 2019-05-30 10:55:54
Writing application : mkvmerge v30.0.0 ('Interstellar') 64-bit
Writing library : libebml v1.3.6 + libmatroska v1.4.9
Attachments : arialbd.ttf / FORTE.TTF / FORTE_0.TTF / impact.ttf / YOUTTX.ttf

Video
ID : 1
Format : HEVC
Format/Info : High Efficiency Video Coding
Format profile : Main 10@L5.1@Main
Codec ID : V_MPEGH/ISO/HEVC
Duration : 1 h 39 min
Bit rate : 2 702 kb/s
Width : 1 920 pixels
Height : 1 080 pixels
Display aspect ratio : 16:9
Frame rate mode : Constant
Frame rate : 23.976 (23976/1000) FPS
Color space : YUV
Chroma subsampling : 4:2:0
Bit depth : 10 bits
Bits/(Pixel*Frame) : 0.054
Stream size : 1.88 GiB (67%)
Writing library : x265 2.8+74-fd517ae68f93:[Windows][GCC 6.3.0][64 bit] 10bit
Encoding settings : cpuid=1111039 / frame-threads=3 / numa-pools=8 / wpp / no-pmode / no-pme / no-psnr / no-ssim / log-level=2 / input-csp=1 / input-res=1920x1080 / interlace=0 / total-frames=0 / level-idc=51 / high-tier=1 / uhd-bd=0 / ref=3 / no-allow-non-conformance / no-repeat-headers / annexb / no-aud / no-hrd / info / hash=0 / no-temporal-layers / no-open-gop / min-keyint=23 / keyint=250 / gop-lookahead=0 / bframes=4 / b-adapt=2 / b-pyramid / bframe-bias=0 / rc-lookahead=20 / lookahead-slices=6 / scenecut=40 / radl=0 / no-intra-refresh / ctu=64 / min-cu-size=8 / no-rect / no-amp / max-tu-size=32 / tu-inter-depth=1 / tu-intra-depth=1 / limit-tu=0 / rdoq-level=0 / dynamic-rd=0.00 / no-ssim-rd / signhide / no-tskip / nr-intra=0 / nr-inter=0 / no-constrained-intra / strong-intra-smoothing / max-merge=2 / limit-refs=3 / no-limit-modes / me=1 / subme=2 / merange=57 / temporal-mvp / weightp / no-weightb / no-analyze-src-pics / deblock=0:0 / sao / no-sao-non-deblock / rd=3 / no-early-skip / rskip / no-fast-intra / no-tskip-fast / no-cu-lossless / no-b-intra / no-splitrd-skip / rdpenalty=0 / psy-rd=2.00 / psy-rdoq=0.00 / no-rd-refine / no-lossless / cbqpoffs=0 / crqpoffs=0 / rc=abr / bitrate=2700 / qcomp=0.60 / qpstep=4 / stats-write=0 / stats-read=2 / cplxblur=20.0 / qblur=0.5 / ipratio=1.40 / pbratio=1.30 / aq-mode=1 / aq-strength=1.00 / cutree / zone-count=0 / no-strict-cbr / qg-size=32 / no-rc-grain / qpmax=69 / qpmin=0 / no-const-vbv / sar=0 / overscan=0 / videoformat=5 / range=0 / colorprim=2 / transfer=2 / colormatrix=2 / chromaloc=0 / display-window=0 / max-cll=0,0 / min-luma=0 / max-luma=1023 / log2-max-poc-lsb=8 / vui-timing-info / vui-hrd-info / slices=1 / no-opt-qp-pps / no-opt-ref-list-length-pps / no-multi-pass-opt-rps / scenecut-bias=0.05 / no-opt-cu-delta-qp / no-aq-motion / no-hdr / no-hdr-opt / no-dhdr10-opt / no-idr-recovery-sei / analysis-reuse-level=5 / scale-factor=0 / refine-intra=0 / refine-inter=0 / refine-mv=0 / no-limit-sao / ctu-info=0 / no-lowpass-dct / refine-mv-type=0 / copy-pic=1 / max-ausize-factor=1.0 / no-dynamic-refine / no-single-sei
Language : Spanish
Default : Yes
Forced : No

Audio #1
ID : 2
Format : AC-3
Format/Info : Audio Coding 3
Commercial name : Dolby Digital
Codec ID : A_AC3
Duration : 1 h 39 min
Bit rate mode : Constant
Bit rate : 448 kb/s
Channel(s) : 6 channels
Channel layout : L R C LFE Ls Rs
Sampling rate : 48.0 kHz
Frame rate : 31.250 FPS (1536 SPF)
Bit depth : 16 bits
Compression mode : Lossy
Stream size : 320 MiB (11%)
Language : Catalan
Service kind : Complete Main
Default : Yes
Forced : No

Audio #2
ID : 3
Format : AC-3
Format/Info : Audio Coding 3
Commercial name : Dolby Digital
Codec ID : A_AC3
Duration : 1 h 39 min
Bit rate mode : Constant
Bit rate : 448 kb/s
Channel(s) : 6 channels
Channel layout : L R C LFE Ls Rs
Sampling rate : 48.0 kHz
Frame rate : 31.250 FPS (1536 SPF)
Bit depth : 16 bits
Compression mode : Lossy
Stream size : 320 MiB (11%)
Language : Spanish
Service kind : Complete Main
Default : No
Forced : No

Audio #3
ID : 4
Format : AC-3
Format/Info : Audio Coding 3
Commercial name : Dolby Digital
Codec ID : A_AC3
Duration : 1 h 39 min
Bit rate mode : Constant
Bit rate : 448 kb/s
Channel(s) : 6 channels
Channel layout : L R C LFE Ls Rs
Sampling rate : 48.0 kHz
Frame rate : 31.250 FPS (1536 SPF)
Bit depth : 16 bits
Compression mode : Lossy
Stream size : 320 MiB (11%)
Language : Japanese
Service kind : Complete Main
Default : No
Forced : No

Text #1
ID : 5
Format : UTF-8
Codec ID : S_TEXT/UTF8
Codec ID/Info : UTF-8 Plain Text
Duration : 1 h 38 min
Bit rate : 0 b/s
Count of elements : 7
Stream size : 91.0 Bytes (0%)
Title : Forzados
Language : Spanish
Default : Yes
Forced : Yes

Text #2
ID : 6
Format : ASS
Codec ID : S_TEXT/ASS
Codec ID/Info : Advanced Sub Station Alpha
Duration : 1 h 35 min
Bit rate : 73 b/s
Count of elements : 912
Compression mode : Lossless
Stream size : 51.2 KiB (0%)
Language : Catalan
Default : No
Forced : No

Text #3
ID : 7
Format : UTF-8
Codec ID : S_TEXT/UTF8
Codec ID/Info : UTF-8 Plain Text
Duration : 1 h 38 min
Bit rate : 53 b/s
Count of elements : 1044
Stream size : 38.5 KiB (0%)
Language : Spanish
Default : No
Forced : No

Menu
00:00:00.000 : :Chapter 1
00:08:25.088 : :Chapter 2
00:15:30.930 : :Chapter 3
00:24:24.380 : :Chapter 4
00:31:25.801 : :Chapter 5
00:39:07.846 : :Chapter 6
00:48:49.427 : :Chapter 7
00:59:17.763 : :Chapter 8
01:07:11.528 : :Chapter 9
01:17:00.074 : :Chapter 10
01:24:40.951 : :Chapter 11
01:31:59.973 : :Chapter 12

Salutacions i visca Bola de Drac!
P.D.: No pretenc cap reconeixement per aquesta release, ot el mèrit és del tal yamil que és qui l'ha fet, jo només he eliminat el DTS espanyol i afegit l'AC3 català.

No podrías subirla a un enlace de mega normal o el que tu prefieras?Llevo un rato intentando descargarla pero no me deja por ''demasiadas visualizaciones o descargas'' :( Mil gracias por el aporte a los dos!
 
Avatar de l’usuari
fabrebatalla18
Chishinchu
Chishinchu
Entrades: 3316
Membre des de: ds. 11 juny 2011, 17:30

Re: [Drive] Bola de Drac Super Broly 1080p h264

dv. 31 maig 2019, 17:36

tato25 ha escrit:
Os dejo una muestra. de 82s. Un 704*396p HEVC con 2 pistas en flac 5.1 en catalán. La primera corresponde al audio original montado en el DVD/BD de Selecta Vision, la segunda, la misma pero corrigiéndole el tono:

Pero d'on has tret el teu audio? Crec que a aquestes alçades tots hauriem de saber que els DVD mai solen tenir el to correcte quan es un doblatge de cines (on es dobla a 23,976 o fins i tot a 24 exacte).
 
DV2FOX
Usuari
Usuari
Entrades: 6
Membre des de: dg. 02 feb. 2014, 16:56

Re: [Drive] Bola de Drac Super Broly 1080p h264

dv. 31 maig 2019, 17:41

@The_IronHide: Tienes un privado ^^

Qui està connectat

Usuaris navegant en aquest fòrum: No hi ha cap usuari registrat i 5 visitants