Anime i manga en català

Moderadors: Maki, wachimiro

 
Avatar de l’usuari
worldofjake2012
Ishinchu
Ishinchu
Entrades: 52
Membre des de: dt. 29 nov. 2016, 22:59
Contacta:

[Minhateca] Clifford, el gran gos vermell [17/65] [WEBrip dual català-anglès]

dj. 12 oct. 2017, 21:52

Imatge
CLIFFORD, EL GRAN GOS VERMELL
SINOPSI:
Arriben les aventures d'en Clifford, el gos més gros i més vermell que ha existit mai. De fet, és tan gran com l'amor que sent per la seva mestressa, l'Emily. En Clifford és gegant, és cert, però al costat dels seus millors amics, la Cleo i en Bistecs, està aprenent a fer-se gran, a compartir, a mirar pels amics i pels sentiments dels altres, a jugar respectant les normes i, sobretot, a fer que cada dia sigui un dia especial. L'Illa de Birdwell és el seu paradís, i els seus amics, un tresor que sap que ha de cuidar amb tot el cor, un cor tan gran i tan vermell com tot ell.

FITXA TÈCNICA:
Títols: Clifford the Big Red Dog
Any original d'emissió: 2000-2003
Número de temporades: 2
Número d'episodis: 65
País: Estats Units
Idioma original: Anglès
Companyies: Scholastic, Mike Young Productions
Canal original: PBS Kids
Gènere: Educatiu, comèdia, fantasia
Tamany: 180MB aproximadament
Format: MKV
Duració: 26 minuts aproximadament

FONTS DEL RIPEIG:
Àudio en català: TV3 a la carta
Vídeo i àudio en anglès: Torrent

MEDIAINFO:
Spoiler: mostra
General
Unique ID : 217187410212585136589214243842672484923 (0xA364C6105DD3DF32AFFAAD97B8E2E23B)
Format : Matroska
Format version : Version 4 / Version 2
File size : 181 MiB
Duration : 26 min 5 s
Overall bit rate : 969 kb/s
Encoded date : UTC 2017-10-11 06:43:41
Writing application : mkvmerge v9.8.0 ('Kuglblids') 64bit
Writing library : libebml v1.3.4 + libmatroska v1.4.5

Video
ID : 1
Format : AVC
Format/Info : Advanced Video Codec
Format profile : Main@L4
Format settings, CABAC : Yes
Format settings, RefFrames : 4 frames
Codec ID : V_MPEG4/ISO/AVC
Duration : 26 min 3 s
Bit rate : 713 kb/s
Width : 538 pixels
Height : 404 pixels
Display aspect ratio : 4:3
Frame rate mode : Constant
Frame rate : 29.970 (30000/1001) FPS
Color space : YUV
Chroma subsampling : 4:2:0
Bit depth : 8 bits
Scan type : Progressive
Bits/(Pixel*Frame) : 0.109
Stream size : 133 MiB (74%)
Writing library : x264 core 142 r2479 dd79a61
Encoding settings : cabac=1 / ref=4 / deblock=1:1:1 / analyse=0x1:0x111 / me=hex / subme=6 / psy=1 / psy_rd=0.40:0.00 / mixed_ref=1 / me_range=16 / chroma_me=1 / trellis=1 / 8x8dct=0 / cqm=0 / deadzone=21,11 / fast_pskip=1 / chroma_qp_offset=-2 / threads=12 / lookahead_threads=2 / sliced_threads=0 / nr=0 / decimate=1 / interlaced=0 / bluray_compat=0 / constrained_intra=0 / bframes=5 / b_pyramid=2 / b_adapt=1 / b_bias=0 / direct=1 / weightb=1 / open_gop=0 / weightp=1 / keyint=300 / keyint_min=30 / scenecut=40 / intra_refresh=0 / rc_lookahead=30 / rc=crf / mbtree=1 / crf=19.0 / qcomp=0.60 / qpmin=0 / qpmax=69 / qpstep=4 / vbv_maxrate=20000 / vbv_bufsize=25000 / crf_max=0.0 / nal_hrd=none / filler=0 / ip_ratio=1.40 / aq=1:0.60
Default : Yes
Forced : No
Color range : Limited
Color primaries : BT.601 NTSC
Transfer characteristics : BT.709
Matrix coefficients : BT.601

Audio #1
ID : 2
Format : AAC
Format/Info : Advanced Audio Codec
Format profile : LC
Codec ID : A_AAC
Duration : 26 min 0 s
Bit rate : 61.7 kb/s
Channel(s) : 2 channels
Channel positions : Front: L R
Sampling rate : 44.1 kHz
Frame rate : 43.066 FPS (1024 SPF)
Compression mode : Lossy
Stream size : 11.5 MiB (6%)
Language : Catalan
Default : Yes
Forced : No

Audio #2
ID : 3
Format : AAC
Format/Info : Advanced Audio Codec
Format profile : LC
Codec ID : A_AAC
Duration : 26 min 5 s
Bit rate : 192 kb/s
Channel(s) : 2 channels
Channel positions : Front: L R
Sampling rate : 44.1 kHz
Frame rate : 43.066 FPS (1024 SPF)
Compression mode : Lossy
Stream size : 35.8 MiB (20%)
Language : English
Default : No
Forced : No

CAPTURES:
Imatge

ENLLAÇOS (dual català-anglès)
PRIMERA TEMPORADA:
Spoiler: mostra
[1x01]
[1x02]
[1x03]
[1x04]
[1x05]
[1x06]
[1x07]
[1x08]
[1x09]
[1x10]
[1x11]
[1x12]
[1x13]
[1x14]
[1x15]
[1x16]
[1x17]

SEGONA TEMPORADA:
Spoiler: mostra
Serà pujada molt aviat! ;)
worldofjake2012 l’ha editat per darrera vegada el dia: dv. 03 nov. 2017, 18:14, en total s’ha editat 4 vegades.
 
Avatar de l’usuari
wachimiro
Moderadors
Moderadors
Entrades: 1693
Membre des de: dg. 19 feb. 2006, 16:53
Ubicació: China

Re: [Dropbox] Clifford, el gran gos vermell [7/65] [WEBrip dual català-anglès] [1ª temporada iniciada]

dv. 13 oct. 2017, 04:36

Gracies, aquesta m'interessa ;)
Si teniu cap problema per descarregar amb JDownloader feu servir aquesta versió i actualitzeu aquí la trobareu. -->>JDownloader <<--
 
Avatar de l’usuari
worldofjake2012
Ishinchu
Ishinchu
Entrades: 52
Membre des de: dt. 29 nov. 2016, 22:59
Contacta:

Re: [Dropbox] Clifford, el gran gos vermell [7/65] [WEBrip dual català-anglès] [1ª temporada iniciada]

dv. 13 oct. 2017, 17:58

wachimiro ha escrit:
Gracies, aquesta m'interessa ;)

De res, company! :yeah:
 
Avatar de l’usuari
worldofjake2012
Ishinchu
Ishinchu
Entrades: 52
Membre des de: dt. 29 nov. 2016, 22:59
Contacta:

Re: [Dropbox] Clifford, el gran gos vermell [7/65] [WEBrip dual català-anglès] [1ª temporada iniciada]

dg. 15 oct. 2017, 02:52

Afegits els capítols 1x08, 1x09, 1x10, 1x11 i 1x12, i també va canviar de lloc de Dropbox a Minhateca.
 
Avatar de l’usuari
worldofjake2012
Ishinchu
Ishinchu
Entrades: 52
Membre des de: dt. 29 nov. 2016, 22:59
Contacta:

Re: [Minhateca] Clifford, el gran gos vermell [13/65] [WEBrip dual català-anglès]

dg. 15 oct. 2017, 12:58

Afegit el capítol 1x13!
 
Avatar de l’usuari
worldofjake2012
Ishinchu
Ishinchu
Entrades: 52
Membre des de: dt. 29 nov. 2016, 22:59
Contacta:

Re: [Minhateca] Clifford, el gran gos vermell [13/65] [WEBrip dual català-anglès]

dv. 03 nov. 2017, 18:14

Afegits els capítols 1x14, 1x15, 1x16 i 1x17!

Qui està connectat

Usuaris navegant en aquest fòrum: No hi ha cap usuari registrat i 3 visitants