Anime i manga en català

Moderadors: Maki, wachimiro

 
Avatar de l’usuari
wachimiro
Moderadors
Moderadors
Entrades: 1842
Membre des de: dg. 19 feb. 2006, 16:53
Ubicació: China

[YD] CO2 [COMPLETA]

dl. 22 nov. 2010, 13:34

Imatge



ImatgeImatgeImatgeImatge

Info
Video
ID : 0
Format : AVC
Format/Info : Advanced Video Codec
Format profile : High@L3.1
Format settings, CABAC : Yes
Format settings, ReFrames : 2 frames
Codec ID : H264
Duration : 1mn 59s
Bit rate : 1 500 Kbps
Width : 720 pixels
Height : 404 pixels
Display aspect ratio : 16:9
Frame rate : 25.000 fps
Color space : YUV
Chroma subsampling : 4:2:0
Bit depth : 8 bits
Scan type : Progressive
Bits/(Pixel*Frame) : 0.206
Stream size : 21.8 MiB (82%)
Writing library : x264 core 1679598476May 4 2010
Encoding settings : cabac=1 / ref=1 / deblock=0:0:0 / analyse=0x3:0x113 / me=hex / subme=5 / psy=1 / psy_rd=0.0:0.0 / mixed_ref=0 / me_range=16 / chroma_me=1 / trellis=0 / 8x8dct=1 / cqm=0 / deadzone=21,11 / chroma_qp_offset=0 / threads=1 / nr=0 / decimate=1 / mbaff=0 / bframes=3 / b_pyramid=0 / b_adapt=1 / b_bias=0 / direct=1 / wpredb=1 / keyint=250 / keyint_min=1 / scenecut=40 / rc=abr / mbtree=0 / bitrate=1500 / ratetol=1.0 / qcomp=0.50 / qpmin=2 / qpmax=31 / qpstep=4 / ip_ratio=1.40 / pb_ratio=1.30 / aq=1:0.30

Audio
ID : 1
Format : MPEG Audio
Format version : Version 1
Format profile : Layer 3
Codec ID : 55
Codec ID/Hint : MP3
Duration : 1mn 59s
Bit rate mode : Constant
Bit rate : 320 Kbps
Channel(s) : 2 channels
Sampling rate : 48.0 KHz
Compression mode : Lossy
Stream size : 4.54 MiB (17%)
Alignment : Split accross interleaves
Interleave, duration : 498 ms (12.46 video frames)


Un grup de joves intenta triomfar com a banda musical. En Carl és el guitarra principal; l'Odette, la vocalista; l'Olaf, el bateria; i tots tres són els components del grup que segons ells, farà embogir el món amb els seus superèxits. Però, els inicis sempre són difícils i viuran tot un infern. La banda de pop-rock ha de sobreviure les dificultats i sortir dels embolics que en cada capítol sembla que van a pitjor. Sèrie d'animació francesa creada per Philippe Alessandri i produïda per Tele Images Kids (''L'illa de la Lili'', ''Atomic Betty'') i Je Suis Bien Content (''Persèpolis''). La producció, caracteritzada per la seva música actual i pel seu ritme trepidant (els episodis duren dos minuts), està dirigida als més joves.


Contenidor DLC
Imatge
Pass: animelliure

Per descarregar obrir el dlc amb jdownloader.

Tens problemes per descarregar?
Si teniu problemes per descarregar, utilitzeu Jdownlaoder 2 beta ho podeu trobar en aquest >>link<<
una vegada instal·lat actualitzeu el programa i podreu descarregar sense problemes.

Imatge
Si teniu cap problema per descarregar amb JDownloader feu servir aquesta versió i actualitzeu aquí la trobareu. -->>JDownloader <<--
 
Avatar de l’usuari
Sedmikrasky
Arashinchu
Arashinchu
Entrades: 89
Membre des de: dl. 16 abr. 2007, 19:21

Re: [DD][MU] CO2 [COMPLETA]

dl. 22 nov. 2010, 13:51

Gràcies


:adeu:
 
Avatar de l’usuari
dcop
Ushinchu
Ushinchu
Entrades: 1107
Membre des de: dt. 09 feb. 2010, 13:21

Re: [DD][MU] CO2 [COMPLETA]

dl. 22 nov. 2010, 20:01

Miraré a veure què tal. Moltes gràcies de totes maneres.
 
Avatar de l’usuari
ACIDTOTAL
Usuari
Usuari
Entrades: 5
Membre des de: dl. 20 juny 2011, 01:53
Ubicació: index.php
Contacta:

Re: [DD][MU] CO2 [COMPLETA]

dl. 02 gen. 2012, 01:37

Hostia que gran!! aquelles altes hores de matinada aaah!! gràcies per pujar-la!!! :yeah:
Imatge
-THE TRUTH IS OUT THERE-
 
Avatar de l’usuari
sergi_90
Sanshinchu
Sanshinchu
Entrades: 222
Membre des de: dc. 28 gen. 2009, 22:14

Re: [DD][MU] CO2 [COMPLETA]

dl. 02 gen. 2012, 15:05

Gracies wachimiro m'agrada molt aquesta serie. Es molt divertida :yeah: :profident:
 
Avatar de l’usuari
wachimiro
Moderadors
Moderadors
Entrades: 1842
Membre des de: dg. 19 feb. 2006, 16:53
Ubicació: China

Re: [DD][YD] CO2 [COMPLETA]

dv. 01 feb. 2013, 02:11

Serie repujada :bleh:
Si teniu cap problema per descarregar amb JDownloader feu servir aquesta versió i actualitzeu aquí la trobareu. -->>JDownloader <<--
 
suloku
Ushinchu
Ushinchu
Entrades: 1010
Membre des de: dl. 02 jul. 2007, 13:10

Re: [DD][YD] CO2 [COMPLETA]

ds. 02 feb. 2013, 15:40

Vaja, tornes a tenir intertet del bo? Moltes gràcies!

Qui està connectat

Usuaris navegant en aquest fòrum: No hi ha cap usuari registrat i 5 visitants