Anime i manga en català

Moderadors: Maki, wachimiro

 
Avatar de l’usuari
wachimiro
Moderadors
Moderadors
Entrades: 1817
Membre des de: dg. 19 feb. 2006, 16:53
Ubicació: China

[YD] TEO - DVBrip [COMPLETA]

dv. 28 gen. 2011, 18:07

TEO

Imatge
Mediainfo
Video
ID : 0
Format : AVC
Format/Info : Advanced Video Codec
Format profile : High@L3.1
Format settings, CABAC : Yes
Format settings, ReFrames : 2 frames
Codec ID : H264
Duration : 7 min
Bit rate : 1 100 kb/s
Width : 720 pixels
Height : 540 pixels
Display aspect ratio : 4:3
Frame rate : 25.000 FPS
Color space : YUV
Chroma subsampling : 4:2:0
Bit depth : 8 bits
Scan type : Progressive
Bits/(Pixel*Frame) : 0.113
Stream size : 58.4 MiB (77%)
Writing library : x264 core 1679458924Jul 27 2009
Encoding settings : cabac=1 / ref=1 / deblock=0:0:0 / analyse=0x3:0x113 / me=hex / subme=5 / psy_rd=0.0:0.0 / mixed_ref=0 / me_range=16 / chroma_me=1 / trellis=0 / 8x8dct=1 / cqm=0 / deadzone=21,11 / chroma_qp_offset=0 / threads=1 / nr=0 / decimate=1 / mbaff=0 / bframes=3 / b_pyramid=0 / b_adapt=1 / b_bias=0 / direct=1 / wpredb=1 / keyint=250 / keyint_min=1 / scenecut=40 / rc=abr / bitrate=1100 / ratetol=1.0 / qcomp=0.50 / qpmin=2 / qpmax=31 / qpstep=4 / ip_ratio=1.40 / pb_ratio=1.30 / aq=1:0.30

Audio
ID : 1
Format : MPEG Audio
Format version : Version 1
Format profile : Layer 3
Codec ID : 55
Codec ID/Hint : MP3
Duration : 7 min
Bit rate mode : Constant
Bit rate : 320 kb/s
Channel(s) : 2 channels
Sampling rate : 48.0 kHz
Compression mode : Lossy
Stream size : 16.7 MiB (22%)
Alignment : Aligned on interleaves
Interleave, duration : 40 ms (1.00 video frame)
Interleave, preload duratio : 408 ms


En Teo té quatre anys, és alegre i molt curiós i aprofita tot el que l'envolta per aprendre coses noves cada dia. I sempre s'ho passa d'allò més bé!
Hi ha una col·lecció editorial que es publica des de 1974 amb el nom de "Teo descobreix el món" i que ha estat guanyadora de diversos premis literaris.


Episodis [45/45]
Imatge
pass: animelliure


Per descarregar obrir el Click 'n' Load amb jdownloader i per descompimir Winrar.

Tens problemes per descarregar?
[b]Si teniu problemes per descarregar, utilitzeu Jdownlaoder 2 beta ho podeu trobar en aquest >>link<<
una vegada instal·lat actualitzeu el programa i podreu descarregar sense problemes.

Imatge

L'episodi 18 es de tv3.cat.
Si teniu cap problema per descarregar amb JDownloader feu servir aquesta versió i actualitzeu aquí la trobareu. -->>JDownloader <<--
 
Avatar de l’usuari
wachimiro
Moderadors
Moderadors
Entrades: 1817
Membre des de: dg. 19 feb. 2006, 16:53
Ubicació: China

Re: [DD][MU] TEO - DVBrip [COMPLETA]

ds. 15 oct. 2016, 05:20

Repujada.
Si teniu cap problema per descarregar amb JDownloader feu servir aquesta versió i actualitzeu aquí la trobareu. -->>JDownloader <<--
 
shuichi1991
Usuari
Usuari
Entrades: 2
Membre des de: dv. 23 set. 2016, 16:50

Re: [YD] TEO - DVBrip [COMPLETA]

dc. 19 oct. 2016, 12:49

Moltes Gracies per portar aquesta serie completa! :D
 
vaze
Usuari
Usuari
Entrades: 2
Membre des de: ds. 17 set. 2016, 00:04

Re: [YD] TEO - DVBrip [COMPLETA]

dl. 06 nov. 2017, 20:32

Mil gràcies per la sèrie i la difusió del català! :)

Qui està connectat

Usuaris navegant en aquest fòrum: No hi ha cap usuari registrat i 3 visitants