Anime i manga en català

Moderadors: Maki, wachimiro

 
Sol_Badguy
Sanshinchu
Sanshinchu
Entrades: 267
Membre des de: dj. 10 nov. 2005, 12:03

El pequeño Nemo en el país del sueño [Lat-Eng] [Cast] [RS]

dt. 31 gen. 2012, 17:53

Imatge

Sinopsis:

El pequeño Nemo es invitado una noche por el rey Morfeo a visitar el país del sueño.

Sobre la release:

Os comento, ya que es complicado:

1) Los pilotos son ripeos (no propios) conseguidos de la única fuente existente, el LáserDisc, donde fueron publicados, faltaría el primer piloto pero nunca fue publicado así os dejo en la mejor calidad posible los dos pilotos que sí se han liberado.

2) Existen dos versiones, la versión con el audio latino e inglés, sin censurar, montado en base a la imagen del DVD americano (el DVD de Zima estaba muy comprimido), el audio de los DVDs mexicanos de Zima y el audio AC3 inglés 2.0, ya que el 5.1 no sonaba natural. La otra versión trae el doblaje en castellano que se dió en España a la salida de la película en VHS con la imagen del DVD francés, que no es muy buena pero era mejor que el VHS original, ambos montados y sincronizados por mí. La película en latino trae las canciones como las trajo originalmente (he tenido VHSRIPs latinos para verificarlo por si podía hacer un montaje) en inglés y en la versión castellana están todas dobladas.

3) ¿Pero esto es un anime? Digamos que es una coproducción americano-japonesa. Originalmente iba a ser un anime dirigido por Miyazaki y Takahata (Studios Ghibli) pero más adelante, tras renunciar ellos, lo intentaron los señores de los cuales publico sus cortos, a excepción del corto faltante de Sadao Tsukioka, luego, durante el proceso, ha intervenido gente de la talla de George Lucas y finalmente la animación se la dieron a TMS, creadora de caricaturas tan conocidas como "Jem, chica Pop" o "Galaxy Rangers", entonces digamos que las influencias son bastante occidentales y personalmente, ya que fue distribuida por Buena Vista, lo meto en la categoría de caricatura.

Ripeo:

Película larga

Spoiler: mostra
Format : AVI
Format/Info : Audio Video Interleave
File size : 1.87 GiB
Duration : 1h 34mn
Overall bit rate : 2 834 Kbps
Writing application : VirtualDubMod 1.5.10.1 (build 2366/release)
Writing library : VirtualDubMod build 2366/release

Video
ID : 0
Format : MPEG-4 Visual
Format profile : Advanced Simple@L5
Format settings, BVOP : 2
Format settings, QPel : No
Format settings, GMC : No warppoints
Format settings, Matrix : Default (H.263)
Codec ID : XVID
Codec ID/Hint : XviD
Duration : 1h 34mn
Bit rate : 2 369 Kbps
Width : 720 pixels
Height : 576 pixels
Display aspect ratio : 5:4
Frame rate : 29.970 fps
Standard : PAL
Color space : YUV
Chroma subsampling : 4:2:0
Bit depth : 8 bits
Scan type : Progressive
Compression mode : Lossy
Bits/(Pixel*Frame) : 0.191
Stream size : 1.56 GiB (84%)
Writing library : XviD 1.2.1 (UTC 2008-12-04)

Audio #1
ID : 1
Format : MPEG Audio
Format version : Version 1
Format profile : Layer 3
Codec ID : 55
Codec ID/Hint : MP3
Duration : 1h 34mn
Bit rate mode : Constant
Bit rate : 192 Kbps
Channel(s) : 2 channels
Sampling rate : 48.0 KHz
Compression mode : Lossy
Stream size : 130 MiB (7%)
Alignment : Aligned on interleaves
Interleave, duration : 33 ms (1.00 video frame)
Interleave, preload duration : 504 ms

Audio #2
ID : 2
Format : AC-3
Format/Info : Audio Coding 3
Mode extension : CM (complete main)
Codec ID : 2000
Duration : 1h 34mn
Bit rate mode : Constant
Bit rate : 256 Kbps
Channel(s) : 2 channels
Channel positions : Front: L R
Sampling rate : 48.0 KHz
Bit depth : 16 bits
Compression mode : Lossy
Stream size : 173 MiB (9%)
Alignment : Split accross interleaves
Interleave, duration : 33 ms (1.00 video frame)
Interleave, preload duration : 500 ms


Película corta

Spoiler: mostra
Format : AVI
Format/Info : Audio Video Interleave
File size : 732 MiB
Duration : 1h 24mn
Overall bit rate : 1 215 Kbps
Writing application : Nandub v1.0rc2
Writing library : Nandub build 1853/release

Video
ID : 0
Format : MPEG-4 Visual
Format settings, BVOP : 1
Format settings, QPel : No
Format settings, GMC : No warppoints
Format settings, Matrix : Default (H.263)
Muxing mode : Packed bitstream
Codec ID : DX50
Codec ID/Hint : DivX 5
Duration : 1h 24mn
Bit rate : 948 Kbps
Width : 512 pixels
Height : 384 pixels
Display aspect ratio : 4:3
Frame rate : 25.000 fps
Color space : YUV
Chroma subsampling : 4:2:0
Bit depth : 8 bits
Scan type : Progressive
Compression mode : Lossy
Bits/(Pixel*Frame) : 0.193
Stream size : 571 MiB (78%)
Writing library : DivX 5.2.1 (WaffleDay) (UTC 2004-09-08)

Audio
ID : 1
Format : MPEG Audio
Format version : Version 1
Format profile : Layer 3
Codec ID : 55
Codec ID/Hint : MP3
Duration : 1h 24mn
Bit rate mode : Constant
Bit rate : 256 Kbps
Channel(s) : 2 channels
Sampling rate : 44.1 KHz
Compression mode : Lossy
Delay relative to video : 23ms
Stream size : 154 MiB (21%)
Alignment : Aligned on interleaves
Interleave, duration : 26 ms (0.65 video frame)
Interleave, preload duration : 528 ms


Corto de Andy Gaskill y Yoshifumi Kondo

Spoiler: mostra
Format : AVI
Format/Info : Audio Video Interleave
File size : 60.3 MiB
Duration : 3mn 34s
Overall bit rate : 2 359 Kbps

Video
ID : 0
Format : MPEG-4 Visual
Codec ID : DIVX
Codec ID/Info : Project Mayo
Codec ID/Hint : DivX 4
Duration : 3mn 34s
Bit rate : 1 988 Kbps
Width : 640 pixels
Height : 480 pixels
Display aspect ratio : 4:3
Frame rate : 29.970 fps
Color space : YUV
Chroma subsampling : 4:2:0
Compression mode : Lossy
Bits/(Pixel*Frame) : 0.216
Stream size : 50.8 MiB (84%)

Audio
ID : 1
Format : ADPCM
Codec ID : 11
Codec ID/Hint : Intel
Duration : 3mn 34s
Bit rate mode : Constant
Bit rate : 352.8 Kbps
Channel(s) : 2 channels
Sampling rate : 44.1 KHz
Bit depth : 4 bits
Stream size : 9.05 MiB (15%)
Interleave, duration : 33 ms (1.00 video frame)


Corto de Osuma Dezaki

Spoiler: mostra
Format : AVI
Format/Info : Audio Video Interleave
File size : 124 MiB
Duration : 10mn 31s
Overall bit rate : 1 646 Kbps
Writing application : FairUse Wizard - http://fairusewizard.com
Writing library : The best and REALLY easy backup tool

Video
ID : 0
Format : MPEG-4 Visual
Format profile : Advanced Simple@L5
Format settings, BVOP : 2
Format settings, QPel : No
Format settings, GMC : No warppoints
Format settings, Matrix : Default (MPEG)
Codec ID : XVID
Codec ID/Hint : XviD
Duration : 10mn 31s
Bit rate : 1 508 Kbps
Width : 720 pixels
Height : 400 pixels
Display aspect ratio : 16:9
Frame rate : 23.976 fps
Color space : YUV
Chroma subsampling : 4:2:0
Bit depth : 8 bits
Scan type : Progressive
Compression mode : Lossy
Bits/(Pixel*Frame) : 0.218
Stream size : 114 MiB (92%)
Writing library : XviD 1.1.0 Beta2 (UTC 2005-04-04)

Audio
ID : 1
Format : MPEG Audio
Format version : Version 1
Format profile : Layer 3
Mode : Joint stereo
Mode extension : MS Stereo
Codec ID : 55
Codec ID/Hint : MP3
Duration : 10mn 31s
Bit rate mode : Constant
Bit rate : 128 Kbps
Channel(s) : 2 channels
Sampling rate : 48.0 KHz
Compression mode : Lossy
Stream size : 9.64 MiB (8%)
Alignment : Aligned on interleaves
Interleave, duration : 42 ms (1.00 video frame)
Interleave, preload duration : 504 ms
Writing library : LAME3.96r
Encoding settings : -m j -V 4 -q 2 -lowpass 17.5 -b 128


Capturas:

Película larga

Spoiler: mostra
Imatge

Imatge

Imatge


Película corta

Spoiler: mostra
Imatge
Imatge


Corto de Andy Gaskill y Yoshifumi Kondo

Spoiler: mostra
Imatge


Corto de Osuma Dezaki

Spoiler: mostra
Imatge


Enlaces:

El pequeño Nemo

Password:

winsor

PS: Resubida.
Disculpen los problemas técnicos, estamos trabajando para recuperar la normalidad ^^.
 
ls24954
Usuari
Usuari
Entrades: 18
Membre des de: dt. 17 jul. 2012, 13:29

Re: El pequeño Nemo en el país del sueño [Lat-Eng] [Cast] [R

dv. 27 jul. 2012, 04:00

No me ha quedado muy claro. Es en español latino y ingles no?? de castellano solo subtitulos? Me equivoco? La estoy buscando como un loco en castellano y no la encuentro por ningun ladoooo!!!! :blink:

Un saludo! :adeu:
 
bluedarky
Usuari
Usuari
Entrades: 5
Membre des de: dt. 28 ago. 2012, 03:25

Re: El pequeño Nemo en el país del sueño [Lat-Eng] [Cast] [R

dt. 28 ago. 2012, 03:30

A ver si por favor vuelves a subir esto... estoy buscandolo como loco y no hay manera de encontrarlo... Tienes bastante buen material recopilado y es una pena que se pierda por culpa de un servidor que borra los archivos
 
Avatar de l’usuari
eskolaris
Usuari
Usuari
Entrades: 2
Membre des de: dv. 28 juny 2013, 14:37
Ubicació: Mi mundo mágico^^
Contacta:

Re: El pequeño Nemo en el país del sueño [Lat-Eng] [Cast] [R

dt. 19 nov. 2013, 20:04

sería posible que se volviera a subir esta película???
 
benelux89
Usuari
Usuari
Entrades: 2
Membre des de: dg. 22 gen. 2017, 16:35

Re: El pequeño Nemo en el país del sueño [Lat-Eng] [Cast] [RS]

dg. 22 gen. 2017, 16:41

Hola,

Estoy intentado descargar la película EL PEQUEÑO NEMO en castellano, pero el enlace ya no funciona. ¿Pueden arreglarlo?

Gracias
 
benelux89
Usuari
Usuari
Entrades: 2
Membre des de: dg. 22 gen. 2017, 16:35

Re: El pequeño Nemo en el país del sueño [Lat-Eng] [Cast] [RS]

dg. 22 gen. 2017, 16:42

Hola,

Estoy intentado descargar la película EL PEQUEÑO NEMO en castellano, pero el enlace ya no funciona. ¿Pueden arreglarlo?

Gracias
 
cloudsnake861
Arashinchu
Arashinchu
Entrades: 103
Membre des de: dt. 21 oct. 2014, 14:32

Re: El pequeño Nemo en el país del sueño [Lat-Eng] [Cast] [RS]

dc. 10 gen. 2018, 23:22

wooow me apunto para una resubida con el doblaje en castellano la busco como loco saludos!!

Qui està connectat

Usuaris navegant en aquest fòrum: No hi ha cap usuari registrat i 3 visitants