Anime i manga en català

Moderadors: Maki, wachimiro

 
Sol_Badguy
Sanshinchu
Sanshinchu
Entrades: 267
Membre des de: dj. 10 nov. 2005, 12:03

Conan el aventurero y Conan y los jóvenes guerreros

dt. 27 des. 2011, 21:49

Imatge

Imatge

Sinopsis:

Conan de Cimmeria, junto con sus amigos, buscará la forma de devolver a sus padres a la vida que han sido convertidos en piedra por culpa del malvado hechicero Wrath-Amon.

Sobre la release:

El montaje es de Moonknight, con la salida de la primera edición de los DVDs americanos, que traían todos los capítulos menos el 33, "Una aguja en un pajar" que ahora mismo está en calidad TVRIP pero se ve bien, asi que los otros 64 son DVD+VHS con audio dual. Luego, los otros 13 capítulos de la segunda saga llamada "Conan y los jóvenes guerreros", hay 8 capítulos en formato DVD+VHS y los 5 finales capturados de Telecinco pero se ven bien.

He intentado encontrar los nuevos capítulos de los nuevos DVDs pero de momento no ha habido suerte, pero al menos podréis disfrutar de esta serie completa.

Ripeo:

Spoiler: mostra
Format : AVI
Format/Info : Audio Video Interleave
File size : 255 MiB
Duration : 19mn 34s
Overall bit rate : 1 818 Kbps
Writing application : VirtualDubMod 1.5.10.2 (build 2540/release)
Writing library : VirtualDubMod build 2540/release

Video
ID : 0
Format : AVC
Format/Info : Advanced Video Codec
Format profile : High@L5.1
Format settings, CABAC : No
Format settings, ReFrames : 2 frames
Codec ID : H264
Duration : 19mn 34s
Bit rate : 1 547 Kbps
Width : 640 pixels
Height : 480 pixels
Display aspect ratio : 4:3
Frame rate : 25.000 fps
Color space : YUV
Chroma subsampling : 4:2:0
Bit depth : 8 bits
Scan type : Progressive
Bits/(Pixel*Frame) : 0.201
Stream size : 217 MiB (85%)
Writing library : x264 core 53
Encoding settings : cabac=0 / ref=1 / deblock=0:0:0 / analyse=0x3:0x113 / me=hex / subme=5 / brdo=0 / mixed_ref=0 / me_range=16 / chroma_me=1 / trellis=0 / 8x8dct=1 / cqm=0 / deadzone=21,11 / chroma_qp_offset=0 / slices=1 / nr=0 / decimate=1 / mbaff=0 / bframes=2 / b_pyramid=0 / b_adapt=1 / b_bias=0 / direct=2 / wpredb=1 / bime=0 / keyint=250 / keyint_min=25 / scenecut=40 / rc=2pass / bitrate=1547 / ratetol=1.0 / rceq='blurCplx^(1-qComp)' / qcomp=0.60 / qpmin=10 / qpmax=51 / qpstep=4 / cplxblur=20.0 / qblur=0.5 / ip_ratio=1.40 / pb_ratio=1.30

Audio #1
ID : 1
Format : MPEG Audio
Format version : Version 1
Format profile : Layer 3
Mode : Joint stereo
Codec ID : 55
Codec ID/Hint : MP3
Duration : 19mn 34s
Bit rate mode : Constant
Bit rate : 128 Kbps
Channel(s) : 2 channels
Sampling rate : 48.0 KHz
Compression mode : Lossy
Stream size : 17.9 MiB (7%)
Alignment : Split accross interleaves
Interleave, duration : 40 ms (1.00 video frame)
Interleave, preload duration : 500 ms

Audio #2
ID : 2
Format : MPEG Audio
Format version : Version 1
Format profile : Layer 3
Mode : Joint stereo
Mode extension : MS Stereo
Codec ID : 55
Codec ID/Hint : MP3
Duration : 19mn 34s
Bit rate mode : Constant
Bit rate : 128 Kbps
Channel(s) : 2 channels
Sampling rate : 48.0 KHz
Compression mode : Lossy
Stream size : 17.9 MiB (7%)
Alignment : Split accross interleaves
Interleave, duration : 40 ms (1.00 video frame)
Interleave, preload duration : 500 ms


Capturas:

Imatge

Imatge

Imatge

Imatge

Enlaces:

Serie completa
Disculpen los problemas técnicos, estamos trabajando para recuperar la normalidad ^^.
 
Brikinhos
Usuari
Usuari
Entrades: 1
Membre des de: dg. 29 abr. 2012, 05:11

Re: Conan el aventurero y Conan y los jóvenes guerreros

dg. 29 abr. 2012, 05:15

Hola, llevo muchísimo tiempo buscando esta gran serie, desde que caparon megaupload todas las series viejas se han extinguido de la red, sería posible que la subieras a torrent o alguna plataforma en castellano? me haría mucha ilusión :D Un saludo!
 
Sun Wukong
Usuari
Usuari
Entrades: 1
Membre des de: dl. 16 nov. 2015, 22:40

Re: Conan el aventurero y Conan y los jóvenes guerreros

dl. 16 nov. 2015, 23:04

Hola!! El enlace da error. Podrías revisarlo? Gracias!! Magnífico aporte!! :lol:
 
Avatar de l’usuari
Angelus Oriol
Sanshinchu
Sanshinchu
Entrades: 209
Membre des de: dg. 26 maig 2013, 09:37

Re: Conan el aventurero y Conan y los jóvenes guerreros

dg. 12 feb. 2017, 13:30

muy buenas! me uno a la petición. sería posible una resubida?

Qui està connectat

Usuaris navegant en aquest fòrum: Loco87 i 40 visitants