Anime i manga en català

Moderadors: Maki, wachimiro

 
Avatar de l’usuari
david80scat
Sanshinchu
Sanshinchu
Entrades: 323
Membre des de: dv. 05 abr. 2013, 15:14

[G.DRIVE] El Asombroso Mundo de Gumball Temp.5 [WEB_DL 1080p] [CAST/ENG]

dl. 27 nov. 2017, 20:43

EL ASOMBROSO MUNDO DE GUMBALL
TEMPORADA 5

MOTIU: Pujaré només aquesta temporada perquè és exclusivament meva. Seguia un usuari de la xarxa que n'estava fent un projecte espectacular, però es va quedar a mitges i fa molt temps que està desaparegut. Així que vaig decidir continuar amb la temporada 5 ja que disposo dels àudios (només me'n falten 3).
Un altre usuari (gràcies a Jinete Fantasma) em va passar les raws. Desconec si hi ha raws millors, però pel meu parer crec que estan molt bé pel pes que tenen. Penso en aquells usuaris que de vegades es queixen que els capítols pesen massa, per això els ofereixo aquests, que pesen poc i es veuen molt bé.

DADES TÈCNIQUES:
    Vídeo: WEB_DL / x265 / 1080p
    Idioma: Castellà/Anglès.
    Àudio: AAC 256 kbps 2.C/AAC 384 kbps 6.C.
    Pes: 150~200 MB.
    (Subtítols forçats per les censures)

Spoiler: mostra
Complete name : C:\Users\DAVID80SCAT\Desktop\Ingles 1080\EL ASOMBROSO MUNDO DE GUMBALL -5X04-\EL ASOMBROSO MUNDO DE GUMBALL -5X04- [CAST-ENG] by david80scat.mkv
Format : Matroska
Format version : Version 4 / Version 2
File size : 162 MiB
Duration : 11 min 33 s
Overall bit rate : 1 955 kb/s
Movie name : EL ASOMBROSO MUNDO DE GUMBALL -5X04 [CAST-ENG] by david80scat
Encoded date : UTC 2017-11-22 13:58:58
Writing application : mkvmerge v17.0.0 ('Be Ur Friend') 64-bit
Writing library : libebml v1.3.5 + libmatroska v1.4.8

Video
ID : 1
Format : HEVC
Format/Info : High Efficiency Video Coding
Format profile : Main@L4@Main
Codec ID : V_MPEGH/ISO/HEVC
Duration : 11 min 33 s
Bit rate : 1 313 kb/s
Width : 1 920 pixels
Height : 1 080 pixels
Display aspect ratio : 16:9
Frame rate mode : Variable
Frame rate : 25.000 FPS
Color space : YUV
Chroma subsampling : 4:2:0
Bit depth : 8 bits
Bits/(Pixel*Frame) : 0.025
Stream size : 109 MiB (67%)
Writing library : x265 2.2+35-fe2f2dd96f8c:[Linux][GCC 5.4.1][64 bit] 8bit+10bit+12bit
Encoding settings : cpuid=1173503 / frame-threads=3 / wpp / no-pmode / no-pme / no-psnr / no-ssim / log-level=2 / input-csp=1 / input-res=1920x1080 / interlace=0 / total-frames=0 / level-idc=0 / high-tier=1 / uhd-bd=0 / ref=3 / no-allow-non-conformance / no-repeat-headers / annexb / no-aud / no-hrd / info / hash=0 / no-temporal-layers / open-gop / min-keyint=25 / keyint=250 / bframes=4 / b-adapt=2 / b-pyramid / bframe-bias=0 / rc-lookahead=20 / lookahead-slices=6 / scenecut=40 / no-intra-refresh / ctu=64 / min-cu-size=8 / no-rect / no-amp / max-tu-size=32 / tu-inter-depth=1 / tu-intra-depth=1 / limit-tu=0 / rdoq-level=0 / dynamic-rd=0.00 / signhide / no-tskip / nr-intra=0 / nr-inter=0 / no-constrained-intra / strong-intra-smoothing / max-merge=2 / limit-refs=3 / no-limit-modes / me=1 / subme=2 / merange=57 / temporal-mvp / weightp / no-weightb / no-analyze-src-pics / deblock=0:0 / sao / no-sao-non-deblock / rd=3 / no-early-skip / rskip / no-fast-intra / no-tskip-fast / no-cu-lossless / no-b-intra / rdpenalty=0 / psy-rd=2.00 / psy-rdoq=0.00 / no-rd-refine / analysis-mode=0 / no-lossless / cbqpoffs=0 / crqpoffs=0 / rc=crf / crf=23.5 / qcomp=0.60 / qpstep=4 / stats-write=0 / stats-read=0 / ipratio=1.40 / pbratio=1.30 / aq-mode=1 / aq-strength=1.00 / cutree / zone-count=0 / no-strict-cbr / qg-size=32 / no-rc-grain / qpmax=69 / qpmin=0 / sar=1 / overscan=0 / videoformat=5 / range=0 / colorprim=2 / transfer=2 / colormatrix=2 / chromaloc=0 / display-window=0 / max-cll=0,0 / min-luma=0 / max-luma=255 / log2-max-poc-lsb=8 / vui-timing-info / vui-hrd-info / slices=1 / opt-qp-pps / opt-ref-list-length-pps / no-multi-pass-opt-rps / scenecut-bias=0.05 / no-opt-cu-delta-qp / no-aq-motion / no-hdr
Language : English
Default : Yes
Forced : No

Audio #1
ID : 2
Format : AAC
Format/Info : Advanced Audio Codec
Format profile : LC
Codec ID : A_AAC
Duration : 11 min 33 s
Bit rate : 253 kb/s
Channel(s) : 2 channels
Channel positions : Front: L R
Sampling rate : 48.0 kHz
Frame rate : 46.875 FPS (1024 spf)
Compression mode : Lossy
Stream size : 20.9 MiB (13%)
Title : Castellano
Language : Spanish
Default : Yes
Forced : No

Audio #2
ID : 3
Format : AAC
Format/Info : Advanced Audio Codec
Format profile : LC
Codec ID : A_AAC
Duration : 11 min 33 s
Bit rate : 384 kb/s
Channel(s) : 6 channels
Channel positions : Front: L C R, Side: L R, LFE
Sampling rate : 48.0 kHz
Frame rate : 46.875 FPS (1024 spf)
Compression mode : Lossy
Stream size : 31.8 MiB (20%)
Title : English
Language : English
Default : No
Forced : No


CAPTURES:
Spoiler: mostra
Imatge
Imatge
Imatge


5X01- La Reposición (em falta l'áudio)
5X02- Las Historias (em falta l'áudio)
5X03- El Chico
5X04- El Aburrimiento
5X05- La Visión
5X06- Las Decisiones
5X07- El Código
5X08- La Prueba
5X09- El Tróler
5X10- La Escapatoria
5X11- Las Copias (aquest capítol té un parell de segons censurat, quan en Richard es submergeix en l'aigua. Notareu un lleuger descens del volum perquè l'àudio anglès és més baix que el castellà. Li he pujat 5 db per equilibrar una mica, però si ho pugés al mateix nivell que el castellà, en pujar més volum, aquest tros podria distorcionarse. A més, a l'estar més baix, sembla que la música s'escolti de sota l'aigua, tal com surt a l'escena, i crec que ha quedat genial.)
5X12- La Patata
5X13- La Pataleta (aquest capítol té incrustats substítulos procedients de la raw, ja que hi ha una escena on Nicole parla amb gestos. He hagut de posar una caixa negra a sobre amb els substítulos en castellà. No notareu res estrany.)
5X14- El Exterior
5X15- El Jarrón
5X16- Los Casamenteros
5X17- La Caja
5X18- La Consola
5X19- El Ollie
5X20- La Suplantación
5X21- El Ciclo
5X22- Las Estrellas
5X23- Las Notas
5X24- La Dieta
5X25- El Ex
5X26- La Hechicera
5X27- El Menú
5X28- El Tito
5X29- El Rarito
5X30- El Golpe
5X31- El musical
5X32- El Mejor
5X33- Lo Peor
5X34- El Trato
5X35- Los Pétalos
5X36- *no emès*
5X37- El Conflicto
5X38- La Cola
5X39- La Lista
5X40- Las Noticias

Més endavant tinc pensat treballar amb els substítols, si és que també hi hagués demanda. Trobo que és una bona idea per apendre anglès, almenys és lo que tinc pensat. :lol:

Imatge

Espero que en gaudiu :)
Creu amb les senyals!
 
kakarotto2017
Sushinchu
Sushinchu
Entrades: 646
Membre des de: dv. 26 ago. 2016, 16:46
Ubicació: En El Altre Mon

Re: [G.DRIVE] El Asombroso Mundo de Gumball Temp.5 [WEB_DL 1080p] [CAST/ENG]

dc. 29 nov. 2017, 19:28

no me la bajare pero animo con la release es la unica serie que aguanto de boing y bueno db super la segunda y deja de contar y si dan alguna peli que no haya visto tambien jaja un saludo
 
Avatar de l’usuari
xagasa
Ryushinchu
Ryushinchu
Entrades: 2736
Membre des de: dl. 26 maig 2014, 10:16
Ubicació: Planeta M2

Re: [G.DRIVE] El Asombroso Mundo de Gumball Temp.5 [WEB_DL 1080p] [CAST/ENG]

dj. 30 nov. 2017, 01:58

Home boing actualment junt el super 3 son els dos unics canals que emeten anime. T5 en els seus inicis era de les que mes series de animació emetia. Ara res nomès marujeos.
-En tema boing lo bo dels divendres son els clasics de les pelis.
-I dir que moltes gràcies per aquesta nova release david80scat. Salutacions. :yeah:
xagasa l’ha editat per darrera vegada el dia: dj. 30 nov. 2017, 02:04, en total s’ha editat 2 vegades.
 
Avatar de l’usuari
xagasa
Ryushinchu
Ryushinchu
Entrades: 2736
Membre des de: dl. 26 maig 2014, 10:16
Ubicació: Planeta M2

Re: [G.DRIVE] El Asombroso Mundo de Gumball Temp.5 [WEB_DL 1080p] [CAST/ENG]

dj. 30 nov. 2017, 02:02

Paseu a paperera sisplau s'havia repetit 2 vegades el misatge.

Qui està connectat

Usuaris navegant en aquest fòrum: No hi ha cap usuari registrat i 2 visitants