Anime i manga en català

Moderadors: Maki, wachimiro

 
Avatar de l’usuari
worldofjake2012
Arashinchu
Arashinchu
Entrades: 80
Membre des de: dt. 29 nov. 2016, 22:59
Contacta:

[MEGA] Pel·lícules de Bob Esponja [2/2] [Multiàudio] [1/2 BR 1080p]

dl. 08 oct. 2018, 00:03

En memòria de Stephen Hillenburg
:plora:

BOB ESPONJA: LA PEL·LÍCULA
Imatge
REPUJAT AMB VERSIÓ EN 1080P
SINOPSI:
Ah, què plàcida i senzilla és l'existència a Baixos de Bikini, on la llar és una pinya i just a la volta de la cantonada, al Crustaci Cruixent, sempre et serveixen un deliciós Krank Kruixent fresc i calentet... Però aviat el món veurà com es poden torçar les coses en aquest paradís submarí que és la llar de Bob Esponja. Bob i el seu amic, la poc espavilada estrella de mar Patrick s'embarquen en una odissea que els porta a descobrir nous mons i perillosos monstres, per el camí descobreixen també que ser un nen no està tan malament després de tot i l'heroi submarí més innocent de la història va a aprendre algunes veritats de la vida quan en companyia de Patrick viatja a Shell City per rescatar la corona robada del rei Neptú. Nedant entre taurons i altres dolents marins, Bob viatja fins on cap altra esponja ha arribat abans, en aquesta absorbent aventura aquàtica.

Tots voldran capbussar-se i xopar-se cada segon en aquest llargmetratge d’animació en el qual Bob Esponja, un dels personatges més absorbents de Nickelodeon es tira de cap a la seva primera aventura en la gran pantalla. Protagonitzada pels mateixos pololos quadrats al que acompanyen els seus fidels amics de Bikini Bottom, aquesta pel·lícula d’aventures repleta d’acció submarina està basada en la popular sèrie televisiva guanyadora de diversos Emmy.

FITXA TÈCNICA:
Títols: The SpongeBob SquarePants Movie
Any original d'emissió: 2004
País: Estats Units
Idioma original: Anglès
Director: Stephen Hillenburg
Actors: Tom Kenny, Bill Fagerbakke, Clancy Brown, Rodger Bumpass, Doug Lawrence, Jeffrey Tambor, Scarlett Johansson, Alec Baldwin, David Hasselhoff
Companyies: Nickelodeon Movies, Paramount Picutres, United Plankton Pictures, Viacom International Inc
Gènere: Animació, comèdia
Tamany: 3.70 GB
Format: MKV
Duració: 1:23:37
Fixta del doblatge català: http://www.eldoblatge.com/fitxa/1216

MEDIAINFO:
Spoiler: mostra
General
Unique ID : 20105651417413046819141986360610377824 (0xF20352609015F88B5EF6FC3A5CDD060)
Complete name : C:\Users\Jake Sharratt M\Documents\Bigasoft Total Video Converter\New folder\Bob Esponja, la pel·lícula - The SpongeBob SquarePants Movie [2004] [BRrip h.264 1080p AC3 5.1 Cat-Cast-Eng-Por + Subs Cat-Cast-Eng-Por x woj2012].mkv
Format : Matroska
Format version : Version 4
File size : 3.70 GiB
Duration : 1 h 23 min
Overall bit rate : 6 343 kb/s
Encoded date : UTC 2019-02-26 08:15:19
Writing application : mkvmerge v31.0.0 ('Dolores In A Shoestand') 64-bit
Writing library : libebml v1.3.6 + libmatroska v1.4.9

Video
ID : 1
Format : AVC
Format/Info : Advanced Video Codec
Format profile : High@L4
Format settings : CABAC / 4 Ref Frames
Format settings, CABAC : Yes
Format settings, RefFrames : 4 frames
Codec ID : V_MPEG4/ISO/AVC
Duration : 1 h 23 min
Bit rate : 4 537 kb/s
Width : 1 920 pixels
Height : 1 080 pixels
Display aspect ratio : 16:9
Frame rate mode : Constant
Frame rate : 25.000 FPS
Color space : YUV
Chroma subsampling : 4:2:0
Bit depth : 8 bits
Scan type : Progressive
Bits/(Pixel*Frame) : 0.088
Stream size : 2.65 GiB (72%)
Writing library : x264 core 148
Encoding settings : cabac=1 / ref=1 / deblock=1:0:0 / analyse=0x3:0x3 / me=dia / subme=1 / psy=1 / psy_rd=1.00:0.00 / mixed_ref=0 / me_range=16 / chroma_me=1 / trellis=0 / 8x8dct=1 / cqm=0 / deadzone=21,11 / fast_pskip=1 / chroma_qp_offset=0 / threads=6 / lookahead_threads=1 / sliced_threads=0 / nr=0 / decimate=1 / interlaced=0 / bluray_compat=0 / constrained_intra=0 / bframes=3 / b_pyramid=2 / b_adapt=1 / b_bias=0 / direct=1 / weightb=1 / open_gop=0 / weightp=1 / keyint=250 / keyint_min=25 / scenecut=40 / intra_refresh=0 / rc=crf / mbtree=0 / crf=23.0 / qcomp=0.60 / qpmin=0 / qpmax=69 / qpstep=4 / ip_ratio=1.40 / pb_ratio=1.30 / aq=1:1.00
Default : Yes
Forced : No

Audio #1
ID : 2
Format : AC-3
Format/Info : Audio Coding 3
Commercial name : Dolby Digital
Codec ID : A_AC3
Duration : 1 h 23 min
Bit rate mode : Constant
Bit rate : 448 kb/s
Channel(s) : 6 channels
Channel layout : L R C LFE Ls Rs
Sampling rate : 48.0 kHz
Frame rate : 31.250 FPS (1536 SPF)
Bit depth : 16 bits
Compression mode : Lossy
Stream size : 268 MiB (7%)
Title : Bob Esponja, la pel·lícula [Català 5.1]
Language : Catalan
Service kind : Complete Main
Default : Yes
Forced : No

Audio #2
ID : 3
Format : AC-3
Format/Info : Audio Coding 3
Commercial name : Dolby Digital
Codec ID : A_AC3
Duration : 1 h 23 min
Bit rate mode : Constant
Bit rate : 448 kb/s
Channel(s) : 6 channels
Channel layout : L R C LFE Ls Rs
Sampling rate : 48.0 kHz
Frame rate : 31.250 FPS (1536 SPF)
Bit depth : 16 bits
Compression mode : Lossy
Stream size : 268 MiB (7%)
Title : Bob Esponja, la película [Castellano 5.1]
Language : Spanish
Service kind : Complete Main
Default : No
Forced : No

Audio #3
ID : 4
Format : AC-3
Format/Info : Audio Coding 3
Commercial name : Dolby Digital
Codec ID : A_AC3
Duration : 1 h 23 min
Bit rate mode : Constant
Bit rate : 448 kb/s
Channel(s) : 6 channels
Channel layout : L R C LFE Ls Rs
Sampling rate : 48.0 kHz
Frame rate : 31.250 FPS (1536 SPF)
Bit depth : 16 bits
Compression mode : Lossy
Stream size : 268 MiB (7%)
Title : The SpongeBob SquarePants Movie [English 5.1] [V.O.]
Language : English
Service kind : Complete Main
Default : No
Forced : No

Audio #4
ID : 5
Format : AC-3
Format/Info : Audio Coding 3
Commercial name : Dolby Digital
Codec ID : A_AC3
Duration : 1 h 23 min
Bit rate mode : Constant
Bit rate : 448 kb/s
Channel(s) : 6 channels
Channel layout : L R C LFE Ls Rs
Sampling rate : 48.0 kHz
Frame rate : 31.250 FPS (1536 SPF)
Bit depth : 16 bits
Compression mode : Lossy
Stream size : 268 MiB (7%)
Title : SpongeBob SquarePants, o filme [Português 5.1]
Language : Portuguese
Service kind : Complete Main
Default : No
Forced : No

Text #1
ID : 6
Format : VobSub
Muxing mode : zlib
Codec ID : S_VOBSUB
Codec ID/Info : Picture based subtitle format used on DVDs
Duration : 1 h 23 min
Bit rate : 4 615 b/s
Count of elements : 1191
Stream size : 2.76 MiB (0%)
Title : [Català]
Language : Catalan
Default : No
Forced : No

Text #2
ID : 7
Format : VobSub
Muxing mode : zlib
Codec ID : S_VOBSUB
Codec ID/Info : Picture based subtitle format used on DVDs
Duration : 1 h 23 min
Bit rate : 4 680 b/s
Count of elements : 1186
Stream size : 2.80 MiB (0%)
Title : [Castellano]
Language : Spanish
Default : No
Forced : No

Text #3
ID : 8
Format : VobSub
Muxing mode : zlib
Codec ID : S_VOBSUB
Codec ID/Info : Picture based subtitle format used on DVDs
Duration : 1 h 23 min
Bit rate : 4 598 b/s
Count of elements : 1160
Stream size : 2.75 MiB (0%)
Title : [English]
Language : English
Default : No
Forced : No

Text #4
ID : 9
Format : VobSub
Muxing mode : zlib
Codec ID : S_VOBSUB
Codec ID/Info : Picture based subtitle format used on DVDs
Duration : 1 h 23 min
Bit rate : 4 448 b/s
Count of elements : 1184
Stream size : 2.66 MiB (0%)
Title : [Português]
Language : Portuguese
Default : No
Forced : No

Menu
00:00:00.000 : en:(01)00:00:00:000
00:04:56.080 : en:(02)00:04:56:080
00:12:31.000 : en:(03)00:12:31:000
00:18:04.000 : en:(04)00:18:04:000
00:24:38.080 : en:(05)00:24:38:080
00:30:45.040 : en:(06)00:30:45:040
00:36:03.960 : en:(07)00:36:03:960
00:42:11.480 : en:(08)00:42:11:480
00:47:50.440 : en:(09)00:47:50:440
00:52:20.600 : en:(10)00:52:20:600
00:56:08.160 : en:(11)00:56:08:160
01:00:44.120 : en:(12)01:00:44:120
01:07:24.120 : en:(13)01:07:24:120
01:15:17.680 : en:(14)01:15:17:680


CAPTURES:
Imatge

ENLLAÇ:

BOB ESPONJA: UN HEROI FORA DE L'AIGUA
Imatge
VERSIÓ MILLORADA EN PRODUCCIÓ
SINOPSI:
Segona part de la versió cinematogràfica de la famosa sèrie televisiva. Aquest cop, en Bob Esponja i els seus amics, en Patrick, en Calamard, el senyor Cranc i la Sorreta han de trobar la pàgina d’un llibre màgic que ha robat un pirata. Per aconseguir-ho han de transformar-se per poder sortir de l’aigua.

FITXA TÈCNICA:
Títols: The SpongeBob Movie: Sponge Out of Water
Any original d'emissió: 2015
País: Estats Units
Idioma original: Anglès
Director: Paul Tibbitt
Actors: Tom Kenny, Doug Lawrence, Clancy Brown, Bill Fagerbakke, Antonio Banderas, Rodger Bumpass, Carolyn Lawrence, Matt Berry
Companyies: Nickelodeon Movies, Paramount Picutres, United Plankton Pictures, Viacom International Inc
Gènere: Animació, comèdia
Tamany: 2.18 GB
Format: MKV
Duració: 1 hora 29 minuts aproximadament

DADES DELS RIPEJOS:
Vídeo:
Còdec: H264-MPEG-4 AVC (part 10) (avc1)
Resolució: 720x576
Resolució de la pantalla: 720x576
Velocitat de fotogrames: 25
Aspect Ratio: 16:9

Àudio:
Tipus: Àudio
Còdec: A52 Audio (aka AC3) (a52 )
Idioma: Català, castellà, anglès (versió original), irlandès i audiodescripció en anglès
Canals: 3F2M/LFE (5.1)
Freqüència de mostreig: 48000Hz

Subtítols:
Còdec: Subtítols de DVD (spu )
Idioma: Català, castellà, anglès, irlandès, títols i senyals en català, castellà i irlandès

CAPTURES:
Imatge

ENLLAÇ:
worldofjake2012 l’ha editat per darrera vegada el dia: dt. 26 feb. 2019, 18:13, en total s’ha editat 5 vegades.
 
Avatar de l’usuari
worldofjake2012
Arashinchu
Arashinchu
Entrades: 80
Membre des de: dt. 29 nov. 2016, 22:59
Contacta:

Re: [MEGA] Pel·lícules de Bob Esponja [2/2] [Multiàudio] [DVD]

ds. 23 feb. 2019, 22:22

Potser repujaré aquestes pel·lícules en millor qualitat en el futur...
 
Avatar de l’usuari
worldofjake2012
Arashinchu
Arashinchu
Entrades: 80
Membre des de: dt. 29 nov. 2016, 22:59
Contacta:

Re: [MEGA] Pel·lícules de Bob Esponja [2/2] [Multiàudio] [DVD]

dt. 26 feb. 2019, 18:10

Repujat la primera pel·lícula en millor qualitat, 1080p! :profident:
Ara, només falta la segona.

Qui està connectat

Usuaris navegant en aquest fòrum: MSN [Bot] i 2 visitants