Anime i manga en català

Moderadors: Maki, wachimiro

 
david80scat
Sushinchu
Sushinchu
Entrades: 476
Membre des de: dv. 05 abr. 2013, 15:14

[MEGA] Prodigiosa: Les aventures de Ladybug & Gat Noir [51/51+SP] [1080p][Multi Audio&Subs.]

dt. 26 març 2019, 20:45

Imatge

SIPNOSI: La Marinette i l'Adrien són dos estudiants de secundària amb una característica que els diferencia dels altres adolescents: són superherois amb súper habilitats! La Marinette es transforma en Ladybug i l'Adrien esdevé el Gat Noir. Tots dos tenen una missió important entre mans: protegir els ciutadans de París de les urpes del mal. Per a això, hauran de capturar els akuma, les criatures fosques que el misteriós super-malvat Esfinx (Le Papillon a França) crea amb la intenció d'apoderar-se dels seus prodigis (poders que els atorguen) la màxima força.
Per acabar-ho d'adobar, Ladybug i el Gat Noir, que formen un duo perfecte pel que fa a salvar el món es refereix, no coneixen la veritable identitat de l'altre. La Marinette no té idea que sota la disfressa del Gat Noir es troba l'Adrien, el seu amor platònic, i, de la mateixa manera, l'Adrien no sap que el seu amor secret, Ladybug, és en realitat la Marinette. A més, la Chloé, una de les companyes de classe de tots dos, farà la vida impossible a la Marinette i intentarà sortir amb l'Adrien a qualsevol preu valent-se de l'ajuda de la seva millor amiga, la Sabrina. (Font Viquipèdia)

Contrasenya:
Spoiler: mostra
ladybug_&_catnoir_animelliure


Temporada 01:
Vídeo: Web_DL 1080p x264
Àudio: Català/Castellà/Espanyol Llatí/Anglès/Francès/Alemany/Italia/Portugués/Suec/Danès/Holandés/Noruec/Coreà.
Subtítols Complets: (SRT) Català/Castellà/Espanyol Llatí/Anglès/Francès/Alemany/Italia/Portugués/Suec/Danès/Holandés/Noruec/Coreà.
Any: 2015-2016
Mediainfo: 2015-2016
Spoiler: mostra
General
Format : Matroska
Format version : Version 4 / Version 2
File size : 1.58 GiB
Duration : 21 min 54 s
Overall bit rate mode : Variable
Overall bit rate : 10.4 Mb/s
Encoded date : UTC 2019-07-31 18:13:08
Writing application : mkvmerge v33.0.0 ('A Little Bit of Madness') 64-bit
Writing library : libebml v1.3.7 + libmatroska v1.5.0

Video
ID : 1
Format : AVC
Format/Info : Advanced Video Codec
Format profile : Main@L4
Format settings : CABAC / 3 Ref Frames
Format settings, CABAC : Yes
Format settings, ReFrames : 3 frames
Codec ID : V_MPEG4/ISO/AVC
Duration : 21 min 54 s
Bit rate mode : Variable
Bit rate : 5 620 kb/s
Maximum bit rate : 8 430 kb/s
Width : 1 920 pixels
Height : 1 080 pixels
Display aspect ratio : 16:9
Frame rate mode : Constant
Frame rate : 25.000 FPS
Color space : YUV
Chroma subsampling : 4:2:0
Bit depth : 8 bits
Scan type : Progressive
Bits/(Pixel*Frame) : 0.108
Stream size : 869 MiB (54%)
Writing library : x264 core 118
Encoding settings : cabac=1 / ref=3 / deblock=1:0:0 / analyse=0x1:0x111 / me=umh / subme=10 / psy=1 / psy_rd=1.00:0.00 / mixed_ref=1 / me_range=24 / chroma_me=1 / trellis=2 / 8x8dct=0 / cqm=0 / deadzone=21,11 / fast_pskip=1 / chroma_qp_offset=-2 / threads=6 / sliced_threads=0 / nr=0 / decimate=1 / interlaced=0 / bluray_compat=0 / constrained_intra=0 / bframes=2 / b_pyramid=0 / b_adapt=2 / b_bias=0 / direct=3 / weightb=1 / open_gop=0 / weightp=2 / keyint=50 / keyint_min=26 / scenecut=0 / intra_refresh=0 / rc_lookahead=0 / rc=2pass / mbtree=1 / bitrate=5620 / ratetol=1.0 / qcomp=0.50 / qpmin=6 / qpmax=51 / qpstep=4 / cplxblur=20.0 / qblur=0.5 / vbv_maxrate=8430 / vbv_bufsize=11240 / nal_hrd=vbr / ip_ratio=1.40 / aq=1:1.00
Default : Yes
Forced : No

Audio #1
ID : 2
Format : AC-3
Format/Info : Audio Coding 3
Codec ID : A_AC3
Duration : 21 min 36 s
Bit rate mode : Constant
Bit rate : 192 kb/s
Channel(s) : 2 channels
Channel positions : Front: L R
Sampling rate : 48.0 kHz
Frame rate : 31.250 FPS (1536 SPF)
Bit depth : 16 bits
Compression mode : Lossy
Stream size : 29.7 MiB (2%)
Title : Climatika (2.0)
Language : Catalan
Service kind : Complete Main
Default : Yes
Forced : No

Audio #2
ID : 3
Format : E-AC-3
Format/Info : Enhanced Audio Coding 3
Codec ID : A_EAC3
Duration : 21 min 54 s
Bit rate mode : Constant
Bit rate : 640 kb/s
Channel(s) : 6 channels
Channel positions : Front: L C R, Side: L R, LFE
Sampling rate : 48.0 kHz
Frame rate : 187.500 FPS (256 SPF)
Compression mode : Lossy
Stream size : 100 MiB (6%)
Title : Tormentosa (5.1)
Language : Spanish
Service kind : Complete Main
Default : No
Forced : No

Audio #3
ID : 4
Format : E-AC-3
Format/Info : Enhanced Audio Coding 3
Codec ID : A_EAC3
Duration : 21 min 54 s
Bit rate mode : Constant
Bit rate : 128 kb/s
Channel(s) : 2 channels
Channel positions : Front: L R
Sampling rate : 48.0 kHz
Frame rate : 187.500 FPS (256 SPF)
Compression mode : Lossy
Stream size : 20.1 MiB (1%)
Title : Clima Tempestuoso (2.0)
Language : Spanish
Service kind : Complete Main
Default : No
Forced : No

Audio #4
ID : 5
Format : E-AC-3
Format/Info : Enhanced Audio Coding 3
Codec ID : A_EAC3
Duration : 21 min 54 s
Bit rate mode : Constant
Bit rate : 640 kb/s
Channel(s) : 6 channels
Channel positions : Front: L C R, Side: L R, LFE
Sampling rate : 48.0 kHz
Frame rate : 187.500 FPS (256 SPF)
Compression mode : Lossy
Stream size : 100 MiB (6%)
Title : Stormy Weather (5.1)
Language : English
Service kind : Complete Main
Default : No
Forced : No

Audio #5
ID : 6
Format : E-AC-3
Format/Info : Enhanced Audio Coding 3
Codec ID : A_EAC3
Duration : 21 min 54 s
Bit rate mode : Constant
Bit rate : 640 kb/s
Channel(s) : 6 channels
Channel positions : Front: L C R, Side: L R, LFE
Sampling rate : 48.0 kHz
Frame rate : 187.500 FPS (256 SPF)
Compression mode : Lossy
Stream size : 100 MiB (6%)
Title : Climatika (5.1)
Language : French
Service kind : Complete Main
Default : No
Forced : No

Audio #6
ID : 7
Format : E-AC-3
Format/Info : Enhanced Audio Coding 3
Codec ID : A_EAC3
Duration : 21 min 54 s
Bit rate mode : Constant
Bit rate : 640 kb/s
Channel(s) : 6 channels
Channel positions : Front: L C R, Side: L R, LFE
Sampling rate : 48.0 kHz
Frame rate : 187.500 FPS (256 SPF)
Compression mode : Lossy
Stream size : 100 MiB (6%)
Title : Stormy Weather (5.1)
Language : German
Service kind : Complete Main
Default : No
Forced : No

Audio #7
ID : 8
Format : E-AC-3
Format/Info : Enhanced Audio Coding 3
Codec ID : A_EAC3
Duration : 21 min 54 s
Bit rate mode : Constant
Bit rate : 640 kb/s
Channel(s) : 6 channels
Channel positions : Front: L C R, Side: L R, LFE
Sampling rate : 48.0 kHz
Frame rate : 187.500 FPS (256 SPF)
Compression mode : Lossy
Stream size : 100 MiB (6%)
Title : Tempestosa (5.1)
Language : Italian
Service kind : Complete Main
Default : No
Forced : No

Audio #8
ID : 9
Format : E-AC-3
Format/Info : Enhanced Audio Coding 3
Codec ID : A_EAC3
Duration : 21 min 54 s
Bit rate mode : Constant
Bit rate : 640 kb/s
Channel(s) : 6 channels
Channel positions : Front: L C R, Side: L R, LFE
Sampling rate : 48.0 kHz
Frame rate : 187.500 FPS (256 SPF)
Compression mode : Lossy
Stream size : 100 MiB (6%)
Title : Tempestuosa (5.1)
Language : Portuguese
Service kind : Complete Main
Default : No
Forced : No

Audio #9
ID : 10
Format : E-AC-3
Format/Info : Enhanced Audio Coding 3
Codec ID : A_EAC3
Duration : 21 min 54 s
Bit rate mode : Constant
Bit rate : 128 kb/s
Channel(s) : 2 channels
Channel positions : Front: L R
Sampling rate : 48.0 kHz
Frame rate : 187.500 FPS (256 SPF)
Compression mode : Lossy
Stream size : 20.1 MiB (1%)
Title : Stormigt väder (2.0)
Language : Swedish
Service kind : Complete Main
Default : No
Forced : No

Audio #10
ID : 11
Format : E-AC-3
Format/Info : Enhanced Audio Coding 3
Codec ID : A_EAC3
Duration : 21 min 54 s
Bit rate mode : Constant
Bit rate : 128 kb/s
Channel(s) : 2 channels
Channel positions : Front: L R
Sampling rate : 48.0 kHz
Frame rate : 187.500 FPS (256 SPF)
Compression mode : Lossy
Stream size : 20.1 MiB (1%)
Title : Stormvejr på vej (2.0)
Language : Danish
Service kind : Complete Main
Default : No
Forced : No

Audio #11
ID : 12
Format : E-AC-3
Format/Info : Enhanced Audio Coding 3
Codec ID : A_EAC3
Duration : 21 min 54 s
Bit rate mode : Constant
Bit rate : 128 kb/s
Channel(s) : 2 channels
Channel positions : Front: L R
Sampling rate : 48.0 kHz
Frame rate : 187.500 FPS (256 SPF)
Compression mode : Lossy
Stream size : 20.1 MiB (1%)
Title : Lekker Weertje (2.0)
Language : Dutch
Service kind : Complete Main
Default : No
Forced : No

Audio #12
ID : 13
Format : E-AC-3
Format/Info : Enhanced Audio Coding 3
Codec ID : A_EAC3
Duration : 21 min 54 s
Bit rate mode : Constant
Bit rate : 128 kb/s
Channel(s) : 2 channels
Channel positions : Front: L R
Sampling rate : 48.0 kHz
Frame rate : 187.500 FPS (256 SPF)
Compression mode : Lossy
Stream size : 20.1 MiB (1%)
Title : Stormvær (2.0)
Language : Norwegian
Service kind : Complete Main
Default : No
Forced : No

Audio #13
ID : 14
Format : E-AC-3
Format/Info : Enhanced Audio Coding 3
Codec ID : A_EAC3
Duration : 21 min 54 s
Bit rate mode : Constant
Bit rate : 128 kb/s
Channel(s) : 2 channels
Channel positions : Front: L R
Sampling rate : 48.0 kHz
Frame rate : 187.500 FPS (256 SPF)
Compression mode : Lossy
Stream size : 20.1 MiB (1%)
Title : 분노의 폭풍 (2.0)
Language : Korean
Service kind : Complete Main
Default : No
Forced : No

Text #1
ID : 15
Format : UTF-8
Codec ID : S_TEXT/UTF8
Codec ID/Info : UTF-8 Plain Text
Duration : 21 min 4 s
Bit rate : 73 b/s
Count of elements : 335
Stream size : 11.3 KiB (0%)
Title : Català [Complets]
Language : Catalan
Default : No
Forced : No

Text #2
ID : 16
Format : UTF-8
Codec ID : S_TEXT/UTF8
Codec ID/Info : UTF-8 Plain Text
Duration : 21 min 33 s
Bit rate : 57 b/s
Count of elements : 258
Stream size : 9.08 KiB (0%)
Title : Castellano [Completos]
Language : Spanish
Default : No
Forced : No

Text #3
ID : 17
Format : UTF-8
Codec ID : S_TEXT/UTF8
Codec ID/Info : UTF-8 Plain Text
Duration : 21 min 33 s
Bit rate : 61 b/s
Count of elements : 258
Stream size : 9.70 KiB (0%)
Title : Español latino [Completos]
Language : Spanish
Default : No
Forced : No

Text #4
ID : 18
Format : UTF-8
Codec ID : S_TEXT/UTF8
Codec ID/Info : UTF-8 Plain Text
Duration : 21 min 4 s
Bit rate : 73 b/s
Count of elements : 390
Stream size : 11.3 KiB (0%)
Title : Inglés [Para sordos]
Language : English
Default : No
Forced : No

Text #5
ID : 19
Format : UTF-8
Codec ID : S_TEXT/UTF8
Codec ID/Info : UTF-8 Plain Text
Duration : 21 min 32 s
Bit rate : 68 b/s
Count of elements : 258
Stream size : 10.9 KiB (0%)
Title : Francés [Completos]
Language : French
Default : No
Forced : No

Text #6
ID : 20
Format : UTF-8
Codec ID : S_TEXT/UTF8
Codec ID/Info : UTF-8 Plain Text
Duration : 21 min 33 s
Bit rate : 68 b/s
Count of elements : 259
Stream size : 10.8 KiB (0%)
Title : Alemán [Completos]
Language : German
Default : No
Forced : No

Text #7
ID : 21
Format : UTF-8
Codec ID : S_TEXT/UTF8
Codec ID/Info : UTF-8 Plain Text
Duration : 21 min 33 s
Bit rate : 61 b/s
Count of elements : 258
Stream size : 9.71 KiB (0%)
Title : Italiano [Completos]
Language : Italian
Default : No
Forced : No

Text #8
ID : 22
Format : UTF-8
Codec ID : S_TEXT/UTF8
Codec ID/Info : UTF-8 Plain Text
Duration : 21 min 33 s
Bit rate : 60 b/s
Count of elements : 260
Stream size : 9.56 KiB (0%)
Title : Portugués [Completos]
Language : Portuguese
Default : No
Forced : No

Text #9
ID : 23
Format : UTF-8
Codec ID : S_TEXT/UTF8
Codec ID/Info : UTF-8 Plain Text
Duration : 21 min 33 s
Bit rate : 52 b/s
Count of elements : 257
Stream size : 8.27 KiB (0%)
Title : Polaco [Completos]
Language : Polish
Default : No
Forced : No

Text #10
ID : 24
Format : UTF-8
Codec ID : S_TEXT/UTF8
Codec ID/Info : UTF-8 Plain Text
Duration : 21 min 33 s
Bit rate : 63 b/s
Count of elements : 257
Stream size : 9.95 KiB (0%)
Title : Turco [Completos]
Language : Turkish
Default : No
Forced : No

Text #11
ID : 25
Format : UTF-8
Codec ID : S_TEXT/UTF8
Codec ID/Info : UTF-8 Plain Text
Duration : 21 min 33 s
Bit rate : 59 b/s
Count of elements : 257
Stream size : 9.37 KiB (0%)
Title : Sueco [Completos]
Language : Swedish
Default : No
Forced : No

Text #12
ID : 26
Format : UTF-8
Codec ID : S_TEXT/UTF8
Codec ID/Info : UTF-8 Plain Text
Duration : 21 min 33 s
Bit rate : 48 b/s
Count of elements : 257
Stream size : 7.64 KiB (0%)
Title : Danés [Completos]
Language : Danish
Default : No
Forced : No

Text #13
ID : 27
Format : UTF-8
Codec ID : S_TEXT/UTF8
Codec ID/Info : UTF-8 Plain Text
Duration : 21 min 33 s
Bit rate : 57 b/s
Count of elements : 257
Stream size : 9.01 KiB (0%)
Title : Finés [Completos]
Language : Finnish
Default : No
Forced : No

Text #14
ID : 28
Format : UTF-8
Codec ID : S_TEXT/UTF8
Codec ID/Info : UTF-8 Plain Text
Duration : 21 min 33 s
Bit rate : 56 b/s
Count of elements : 268
Stream size : 8.93 KiB (0%)
Title : Holandés [Completos]
Language : Dutch
Default : No
Forced : No

Text #15
ID : 29
Format : UTF-8
Codec ID : S_TEXT/UTF8
Codec ID/Info : UTF-8 Plain Text
Duration : 21 min 33 s
Bit rate : 57 b/s
Count of elements : 257
Stream size : 9.04 KiB (0%)
Title : Noruego [Completos]
Language : Norwegian
Default : No
Forced : No

Text #16
ID : 30
Format : UTF-8
Codec ID : S_TEXT/UTF8
Codec ID/Info : UTF-8 Plain Text
Duration : 21 min 33 s
Bit rate : 93 b/s
Count of elements : 261
Stream size : 14.7 KiB (0%)
Title : Árabe [Completos]
Language : Arabic
Default : No
Forced : No

Text #17
ID : 31
Format : UTF-8
Codec ID : S_TEXT/UTF8
Codec ID/Info : UTF-8 Plain Text
Duration : 21 min 33 s
Bit rate : 62 b/s
Count of elements : 261
Stream size : 9.85 KiB (0%)
Title : Coreano [Completos]
Language : Korean
Default : No
Forced : No

Llista de capítols:
Spoiler: mostra
01- Climatika
02- El Dibuixant
03- Lady Wifi
04- La Princesa Fragància
05- El Desamorós
06- El Sr. Colom
07- Pixelator
08- L'Impostor
09- El Bombollador
10- Simon Diu
11- Rogercop
12- Gamer
13- Animan
14- El Cavaller Negre
15- El Faraó
16- Chronogirl
17- Horrificator
18- La Titellaire
19- El Mim
20- El Guitarrista Malvat
21- Reflekta
22- Els Orígens (1ª Part)
23- Els Orígens (2ª Part)
24- Antibug
25- Kung Food
26- Volpina

Capítols: 26/26
[01-13]
[14-26]

Especial de Nadal:
Vídeo: Web_DL 1080p x264
Àudio: Català/Castellà/Espanyol Llatí/Anglès/Francès/Alemany/Italia/Portugués/Coreà.
Subtítols Complets: (SRT)
Any: 2016
[Especial de Nadal]

Temporada 02:
Vídeo: Web_DL 1080p x264
Àudio: Català/Castellà/Espanyol Llatí/Anglès/Francès/Alemany/Italia/Portugués/Coreà.*
Subtítols Complets: (SRT) Català/Castellà/Espanyol Llatí/Anglès/Francès/Alemany/Italia/Portugués/Polac/Turc/Suec/Danès/Finlandès/Holandès/Noruec/Àrab/Coreà.*
*no tots els capítols tenen tots aquests àudios i substítols.
Any: 2016-2018
Mediainfo:
Spoiler: mostra
General
Format : Matroska
Format version : Version 4 / Version 2
File size : 1.32 GiB
Duration : 21 min 52 s
Overall bit rate mode : Variable
Overall bit rate : 8 648 kb/s
Encoded date : UTC 2019-08-24 10:01:15
Writing application : mkvmerge v36.0.0 ('Is That Jazz?') 64-bit
Writing library : libebml v1.3.9 + libmatroska v1.5.2

Video
ID : 1
Format : AVC
Format/Info : Advanced Video Codec
Format profile : Main@L4
Format settings : CABAC / 3 Ref Frames
Format settings, CABAC : Yes
Format settings, ReFrames : 3 frames
Codec ID : V_MPEG4/ISO/AVC
Duration : 21 min 52 s
Bit rate mode : Variable
Bit rate : 4 420 kb/s
Maximum bit rate : 6 630 kb/s
Width : 1 920 pixels
Height : 1 080 pixels
Display aspect ratio : 16:9
Frame rate mode : Constant
Frame rate : 25.000 FPS
Color space : YUV
Chroma subsampling : 4:2:0
Bit depth : 8 bits
Scan type : Progressive
Bits/(Pixel*Frame) : 0.085
Stream size : 681 MiB (50%)
Writing library : x264 core 148 r2714 2daf636
Encoding settings : cabac=1 / ref=3 / deblock=1:0:0 / analyse=0x1:0x111 / me=umh / subme=10 / psy=1 / psy_rd=1.00:0.00 / mixed_ref=1 / me_range=24 / chroma_me=1 / trellis=2 / 8x8dct=0 / cqm=0 / deadzone=21,11 / fast_pskip=1 / chroma_qp_offset=-2 / threads=8 / lookahead_threads=1 / sliced_threads=0 / nr=0 / decimate=1 / interlaced=0 / bluray_compat=0 / stitchable=1 / constrained_intra=0 / bframes=2 / b_pyramid=0 / b_adapt=2 / b_bias=0 / direct=3 / weightb=1 / open_gop=0 / weightp=2 / keyint=50 / keyint_min=26 / scenecut=0 / intra_refresh=0 / rc_lookahead=50 / rc=2pass / mbtree=1 / bitrate=4420 / ratetol=1.0 / qcomp=0.50 / qpmin=6 / qpmax=51 / qpstep=4 / cplxblur=20.0 / qblur=0.5 / vbv_maxrate=6630 / vbv_bufsize=8840 / nal_hrd=vbr / filler=0 / ip_ratio=1.40 / aq=1:1.00
Default : Yes
Forced : No

Audio #1
ID : 2
Format : AC-3
Format/Info : Audio Coding 3
Codec ID : A_AC3
Duration : 21 min 36 s
Bit rate mode : Constant
Bit rate : 192 kb/s
Channel(s) : 2 channels
Channel positions : Front: L R
Sampling rate : 48.0 kHz
Frame rate : 31.250 FPS (1536 SPF)
Bit depth : 16 bits
Compression mode : Lossy
Stream size : 29.7 MiB (2%)
Title : El Col·leccionista (AC3 192 kbps 2.0)
Language : Catalan
Service kind : Complete Main
Default : Yes
Forced : No

Audio #2
ID : 3
Format : E-AC-3
Format/Info : Enhanced Audio Coding 3
Codec ID : A_EAC3
Duration : 21 min 52 s
Bit rate mode : Constant
Bit rate : 640 kb/s
Channel(s) : 6 channels
Channel positions : Front: L C R, Side: L R, LFE
Sampling rate : 48.0 kHz
Frame rate : 187.500 FPS (256 SPF)
Compression mode : Lossy
Stream size : 100 MiB (7%)
Title : El Coleccionista (E-AC3 640 kbps 5.1)
Language : Spanish
Service kind : Complete Main
Default : No
Forced : No

Audio #3
ID : 4
Format : E-AC-3
Format/Info : Enhanced Audio Coding 3
Codec ID : A_EAC3
Duration : 21 min 52 s
Bit rate mode : Constant
Bit rate : 128 kb/s
Channel(s) : 2 channels
Channel positions : Front: L R
Sampling rate : 48.0 kHz
Frame rate : 187.500 FPS (256 SPF)
Compression mode : Lossy
Stream size : 20.0 MiB (1%)
Title : El Coleccionista (E-AC3 128 kbps 2.0)
Language : Spanish
Service kind : Complete Main
Default : No
Forced : No

Audio #4
ID : 5
Format : E-AC-3
Format/Info : Enhanced Audio Coding 3
Codec ID : A_EAC3
Duration : 21 min 52 s
Bit rate mode : Constant
Bit rate : 640 kb/s
Channel(s) : 6 channels
Channel positions : Front: L C R, Side: L R, LFE
Sampling rate : 48.0 kHz
Frame rate : 187.500 FPS (256 SPF)
Compression mode : Lossy
Stream size : 100 MiB (7%)
Title : The Collector (E-AC3 640 kbps 5.1)
Language : English
Service kind : Complete Main
Default : No
Forced : No

Audio #5
ID : 6
Format : E-AC-3
Format/Info : Enhanced Audio Coding 3
Codec ID : A_EAC3
Duration : 21 min 52 s
Bit rate mode : Constant
Bit rate : 640 kb/s
Channel(s) : 6 channels
Channel positions : Front: L C R, Side: L R, LFE
Sampling rate : 48.0 kHz
Frame rate : 187.500 FPS (256 SPF)
Compression mode : Lossy
Stream size : 100 MiB (7%)
Title : Le Collectionneur (E-AC3 640 kbps 5.1)
Language : French
Service kind : Complete Main
Default : No
Forced : No

Audio #6
ID : 7
Format : E-AC-3
Format/Info : Enhanced Audio Coding 3
Codec ID : A_EAC3
Duration : 21 min 52 s
Bit rate mode : Constant
Bit rate : 640 kb/s
Channel(s) : 6 channels
Channel positions : Front: L C R, Side: L R, LFE
Sampling rate : 48.0 kHz
Frame rate : 187.500 FPS (256 SPF)
Compression mode : Lossy
Stream size : 100 MiB (7%)
Title : Der Collector (E-AC3 640 kbps 5.1)
Language : German
Service kind : Complete Main
Default : No
Forced : No

Audio #7
ID : 8
Format : E-AC-3
Format/Info : Enhanced Audio Coding 3
Codec ID : A_EAC3
Duration : 21 min 52 s
Bit rate mode : Constant
Bit rate : 640 kb/s
Channel(s) : 6 channels
Channel positions : Front: L C R, Side: L R, LFE
Sampling rate : 48.0 kHz
Frame rate : 187.500 FPS (256 SPF)
Compression mode : Lossy
Stream size : 100 MiB (7%)
Title : Il Collezionista (E-AC3 640 kbps 5.1)
Language : Italian
Service kind : Complete Main
Default : No
Forced : No

Audio #8
ID : 9
Format : E-AC-3
Format/Info : Enhanced Audio Coding 3
Codec ID : A_EAC3
Duration : 21 min 52 s
Bit rate mode : Constant
Bit rate : 640 kb/s
Channel(s) : 6 channels
Channel positions : Front: L C R, Side: L R, LFE
Sampling rate : 48.0 kHz
Frame rate : 187.500 FPS (256 SPF)
Compression mode : Lossy
Stream size : 100 MiB (7%)
Title : O Colecionador (E-AC3 640 kbps 5.1)
Language : Portuguese
Service kind : Complete Main
Default : No
Forced : No

Audio #9
ID : 10
Format : E-AC-3
Format/Info : Enhanced Audio Coding 3
Codec ID : A_EAC3
Duration : 21 min 52 s
Bit rate mode : Constant
Bit rate : 128 kb/s
Channel(s) : 2 channels
Channel positions : Front: L R
Sampling rate : 48.0 kHz
Frame rate : 187.500 FPS (256 SPF)
Compression mode : Lossy
Stream size : 20.0 MiB (1%)
Title : 의문의 수집가 (E-AC3 128 kbps 2.0)
Language : Korean
Service kind : Complete Main
Default : No
Forced : No

Text #1
ID : 11
Format : UTF-8
Codec ID : S_TEXT/UTF8
Codec ID/Info : UTF-8 Plain Text
Duration : 20 min 58 s
Bit rate : 81 b/s
Count of elements : 378
Stream size : 12.6 KiB (0%)
Title : Català [Complets]
Language : Catalan
Default : No
Forced : No

Text #2
ID : 12
Format : UTF-8
Codec ID : S_TEXT/UTF8
Codec ID/Info : UTF-8 Plain Text
Duration : 21 min 33 s
Bit rate : 66 b/s
Count of elements : 283
Stream size : 10.5 KiB (0%)
Title : Castellano [Completos]
Language : Spanish
Default : No
Forced : No

Text #3
ID : 13
Format : UTF-8
Codec ID : S_TEXT/UTF8
Codec ID/Info : UTF-8 Plain Text
Duration : 21 min 33 s
Bit rate : 72 b/s
Count of elements : 282
Stream size : 11.4 KiB (0%)
Title : Español latino [Completos]
Language : Spanish
Default : No
Forced : No

Text #4
ID : 14
Format : UTF-8
Codec ID : S_TEXT/UTF8
Codec ID/Info : UTF-8 Plain Text
Duration : 21 min 0 s
Bit rate : 75 b/s
Count of elements : 280
Stream size : 11.6 KiB (0%)
Title : Inglés [Para sordos]
Language : English
Default : No
Forced : No

Text #5
ID : 15
Format : UTF-8
Codec ID : S_TEXT/UTF8
Codec ID/Info : UTF-8 Plain Text
Duration : 21 min 33 s
Bit rate : 66 b/s
Count of elements : 281
Stream size : 10.5 KiB (0%)
Title : Francés [Completos]
Language : French
Default : No
Forced : No

Text #6
ID : 16
Format : UTF-8
Codec ID : S_TEXT/UTF8
Codec ID/Info : UTF-8 Plain Text
Duration : 21 min 33 s
Bit rate : 73 b/s
Count of elements : 278
Stream size : 11.5 KiB (0%)
Title : Alemán [Completos]
Language : German
Default : No
Forced : No

Text #7
ID : 17
Format : UTF-8
Codec ID : S_TEXT/UTF8
Codec ID/Info : UTF-8 Plain Text
Duration : 21 min 33 s
Bit rate : 70 b/s
Count of elements : 285
Stream size : 11.1 KiB (0%)
Title : Italiano [Completos]
Language : Italian
Default : No
Forced : No

Text #8
ID : 18
Format : UTF-8
Codec ID : S_TEXT/UTF8
Codec ID/Info : UTF-8 Plain Text
Duration : 21 min 33 s
Bit rate : 63 b/s
Count of elements : 284
Stream size : 10.0 KiB (0%)
Title : Portugués [Completos]
Language : Portuguese
Default : No
Forced : No

Text #9
ID : 19
Format : UTF-8
Codec ID : S_TEXT/UTF8
Codec ID/Info : UTF-8 Plain Text
Duration : 21 min 30 s
Bit rate : 56 b/s
Count of elements : 280
Stream size : 8.88 KiB (0%)
Title : Polaco [Completos]
Language : Polish
Default : No
Forced : No

Text #10
ID : 20
Format : UTF-8
Codec ID : S_TEXT/UTF8
Codec ID/Info : UTF-8 Plain Text
Duration : 21 min 33 s
Bit rate : 71 b/s
Count of elements : 284
Stream size : 11.3 KiB (0%)
Title : Turco [Completos]
Language : Turkish
Default : No
Forced : No

Text #11
ID : 21
Format : UTF-8
Codec ID : S_TEXT/UTF8
Codec ID/Info : UTF-8 Plain Text
Duration : 21 min 30 s
Bit rate : 58 b/s
Count of elements : 247
Stream size : 9.18 KiB (0%)
Title : Sueco [Completos]
Language : Swedish
Default : No
Forced : No

Text #12
ID : 22
Format : UTF-8
Codec ID : S_TEXT/UTF8
Codec ID/Info : UTF-8 Plain Text
Duration : 21 min 8 s
Bit rate : 56 b/s
Count of elements : 248
Stream size : 8.81 KiB (0%)
Title : Danés [Completos]
Language : Danish
Default : No
Forced : No

Text #13
ID : 23
Format : UTF-8
Codec ID : S_TEXT/UTF8
Codec ID/Info : UTF-8 Plain Text
Duration : 21 min 30 s
Bit rate : 61 b/s
Count of elements : 261
Stream size : 9.63 KiB (0%)
Title : Finés [Completos]
Language : Finnish
Default : No
Forced : No

Text #14
ID : 24
Format : UTF-8
Codec ID : S_TEXT/UTF8
Codec ID/Info : UTF-8 Plain Text
Duration : 21 min 0 s
Bit rate : 56 b/s
Count of elements : 224
Stream size : 8.71 KiB (0%)
Title : Holandés [Completos]
Language : Dutch
Default : No
Forced : No

Text #15
ID : 25
Format : UTF-8
Codec ID : S_TEXT/UTF8
Codec ID/Info : UTF-8 Plain Text
Duration : 21 min 30 s
Bit rate : 57 b/s
Count of elements : 325
Stream size : 9.08 KiB (0%)
Title : Noruego [Completos]
Language : Norwegian
Default : No
Forced : No

Text #16
ID : 26
Format : UTF-8
Codec ID : S_TEXT/UTF8
Codec ID/Info : UTF-8 Plain Text
Duration : 21 min 33 s
Bit rate : 109 b/s
Count of elements : 285
Stream size : 17.3 KiB (0%)
Title : Árabe [Completos]
Language : Arabic
Default : No
Forced : No

Text #17
ID : 27
Format : UTF-8
Codec ID : S_TEXT/UTF8
Codec ID/Info : UTF-8 Plain Text
Duration : 21 min 32 s
Bit rate : 73 b/s
Count of elements : 319
Stream size : 11.6 KiB (0%)
Title : Coreano [Completos]
Language : Korean
Default : No
Forced : No

Llista de capítols:
Spoiler: mostra
01- El Col·leccionista
02- Audimatrix
03- Glaciator
04- L'Osset de Pelix Malvat
05- La Problemàtica
06- El Gegantitan
07- La Resposta
08- La Befana
09- La Rossinnoble
10- Gorizilla
11- Robostus (HD)
12- Els Sapotis
13- El Mussol Negre
14- Sirena
15- La Petonejadora
16- Capitana Hardrock
17- El Patinador
18- Style Queen (El Combat de Reines - Part 1)
19- La Vespa Reina (El Combat de Reines - Part 2)
20- Inverso
21- Anansi
22- Maledíctor
23- El Venedor de Sorra
24- Catalista (El dia dels herois, 1a part)
25- Mayura (El dia dels herois, 2a part)

Capítols: 25/25
[01-13]
[14-25]

Notes:
Agraïmanets a fabrebatalla18, gràcies per l'ajuda que m'estàs donant.
Si trobeu que els capítols pesen molt, podeu:
1. Extreure audios i/o substítols al vostre gust amb mkvtoolnix
2. Descarregar-vos la versió lleugera de Lluis_Cat (720p) aquí
3. Descarregar-vos aquesta mateixa versió amb menys àudios/substítols de Adrià a TotsRucs
david80scat l’ha editat per darrera vegada el dia: dg. 29 set. 2019, 16:03, en total s’ha editat 55 vegades.
 
david80scat
Sushinchu
Sushinchu
Entrades: 476
Membre des de: dv. 05 abr. 2013, 15:14

Re: Prodigiosa: Les aventures de Ladybug & Gat Noir [1080p][Multi Audio&Subs.]

dj. 28 març 2019, 20:21

Volia pujar el capítol 4 que ja el tinc compilat però no podrà ser. Té un error i m'he posat en contacte amb TV3 perquè el solucionin. M'acaben de comunicar que ja l'han resolt i en la propera emissió estarà solucionat. De moment, haurem d'esperar.
 
Avatar de l’usuari
fabrebatalla18
Chishinchu
Chishinchu
Entrades: 3316
Membre des de: ds. 11 juny 2011, 17:30

Re: Prodigiosa: Les aventures de Ladybug & Gat Noir [1080p][Multi Audio&Subs.]

dj. 28 març 2019, 21:05

david80scat ha escrit:
Volia pujar el capítol 4 que ja el tinc compilat però no podrà ser. Té un error i m'he posat en contacte amb TV3 perquè el solucionin. M'acaben de comunicar que ja l'han resolt i en la propera emissió estarà solucionat. De moment, haurem d'esperar.

Per curiositat, quin error es?
 
david80scat
Sushinchu
Sushinchu
Entrades: 476
Membre des de: dv. 05 abr. 2013, 15:14

Re: Prodigiosa: Les aventures de Ladybug & Gat Noir [1080p][Multi Audio&Subs.]

dj. 28 març 2019, 22:44

Ja va pasar amb el capítol Malediktor. Falta un diàleg cap al minut 19:06 aproximadament. Després que l'Ayla fos desakumatitzada, diu "Ladybug! Ostres i el Gat Noir! Us puc filmar pel meu blog"; just aquí­ l'Alya segueix parlant però queda en silenci. Llavors en la sincronització ho vaig veure, En l'audio original em sembla que diu:­ "Ou est mon téléphone?". En castellà per exemple diu: "Voy a por mi teléfono". Avui han m'han respost TV3, aixíque en la propera emissió estarà bé.El que no entenc és com cometen aquests errors.
 
david80scat
Sushinchu
Sushinchu
Entrades: 476
Membre des de: dv. 05 abr. 2013, 15:14

Re: Prodigiosa: Les aventures de Ladybug & Gat Noir [1080p][Multi Audio&Subs.]

ds. 30 març 2019, 09:29

Capítol 7 pujat.
 
david80scat
Sushinchu
Sushinchu
Entrades: 476
Membre des de: dv. 05 abr. 2013, 15:14

Re: Prodigiosa: Les aventures de Ladybug & Gat Noir [08/52] [1080p][Multi Audio&Subs.]

dc. 03 abr. 2019, 07:20

Capítols 8 i 10 pujats.

EDIT:
Capítol 11 pujat.
Segons la programació del super 3, diumenge 7 a les 19:33, tornaran a emetre "Lady Wifi". A veure si han pogut corregir el diàleg que faltava tal com em van dir.
 
Kurgan92
Usuari
Usuari
Entrades: 12
Membre des de: dl. 17 des. 2018, 09:31

Re: Prodigiosa: Les aventures de Ladybug & Gat Noir [10/52] [1080p][Multi Audio&Subs.]

dj. 04 abr. 2019, 20:01

Perdoneu, però m'he descarregat els capítols (gran aportació, gràcies), m'he adonat que el capítol núm. 04 no hi és; apart, quan els descomprimeixo, en els capítols 3, 5, 6 i 9 em diu que la contrasenya és incorrecte.
 
david80scat
Sushinchu
Sushinchu
Entrades: 476
Membre des de: dv. 05 abr. 2013, 15:14

Re: Prodigiosa: Les aventures de Ladybug & Gat Noir [10/52] [1080p][Multi Audio&Subs.]

dj. 04 abr. 2019, 21:32

Kurgan92 ha escrit:
Perdoneu, però m'he descarregat els capítols (gran aportació, gràcies), m'he adonat que el capítol núm. 04 no hi és; apart, quan els descomprimeixo, en els capítols 3, 5, 6 i 9 em diu que la contrasenya és incorrecte.


Catxis! Segur que ja m'he equivocat amb la contrasenya. Bé, aquesta nit els repujaré. El capítol 4 el motiu l'he explicat una mica més amunt. Hi ha un error en el capítol, hi falta un diàleg, i vaig contactar amb TV3 per informar-los. Em van donar la raó i em van respondre que el corregirant i en la pròxima emissió ja el tindrem per bé. L'emetran aquest aquest diumenge.

EDIT:
Repujats.
 
Kurgan92
Usuari
Usuari
Entrades: 12
Membre des de: dl. 17 des. 2018, 09:31

Re: Prodigiosa: Les aventures de Ladybug & Gat Noir [10/52] [1080p][Multi Audio&Subs.]

dv. 05 abr. 2019, 10:12

david80scat ha escrit:
Kurgan92 ha escrit:
Perdoneu, però m'he descarregat els capítols (gran aportació, gràcies), m'he adonat que el capítol núm. 04 no hi és; apart, quan els descomprimeixo, en els capítols 3, 5, 6 i 9 em diu que la contrasenya és incorrecte.


Catxis! Segur que ja m'he equivocat amb la contrasenya. Bé, aquesta nit els repujaré. El capítol 4 el motiu l'he explicat una mica més amunt. Hi ha un error en el capítol, hi falta un diàleg, i vaig contactar amb TV3 per informar-los. Em van donar la raó i em van respondre que el corregirant i en la pròxima emissió ja el tindrem per bé. L'emetran aquest aquest diumenge.

EDIT:
Repujats.

:yeah:
 
david80scat
Sushinchu
Sushinchu
Entrades: 476
Membre des de: dv. 05 abr. 2013, 15:14

Re: Prodigiosa: Les aventures de Ladybug & Gat Noir [10/52] [1080p][Multi Audio&Subs.]

dg. 07 abr. 2019, 22:02

Bones notícies, en l'emissió d'avui del capítol "Lady Wifi" ja han arreglat el diàleg que faltava, ara ja el podré montar i d'aquí poc el pujaré.
 
Avatar de l’usuari
fabrebatalla18
Chishinchu
Chishinchu
Entrades: 3316
Membre des de: ds. 11 juny 2011, 17:30

Re: Prodigiosa: Les aventures de Ladybug & Gat Noir [10/52] [1080p][Multi Audio&Subs.]

dl. 08 abr. 2019, 12:14

david80scat ha escrit:
Bones notícies, en l'emissió d'avui del capítol "Lady Wifi" ja han arreglat el diàleg que faltava, ara ja el podré montar i d'aquí poc el pujaré.

Genial, per cert, tot i tenir ja el projecte fet estas guardant els mp2 originals? Sempre va be guardar els audios que pesen poc i mai es sap :)
 
david80scat
Sushinchu
Sushinchu
Entrades: 476
Membre des de: dv. 05 abr. 2013, 15:14

Re: Prodigiosa: Les aventures de Ladybug & Gat Noir [10/52] [1080p][Multi Audio&Subs.]

dl. 08 abr. 2019, 14:33

Sí els guardo.
I aprofito que ja he penjat el capítol 4.
 
david80scat
Sushinchu
Sushinchu
Entrades: 476
Membre des de: dv. 05 abr. 2013, 15:14

Re: Prodigiosa: Les aventures de Ladybug & Gat Noir [12/52] [1080p][Multi Audio&Subs.]

dj. 11 abr. 2019, 00:00

Pujat el capítol 12.
 
david80scat
Sushinchu
Sushinchu
Entrades: 476
Membre des de: dv. 05 abr. 2013, 15:14

Re: Prodigiosa: Les aventures de Ladybug & Gat Noir [13/52] [1080p][Multi Audio&Subs.]

dg. 14 abr. 2019, 09:38

La meitat de la primera temporada completa.

EDITO:
I capítol 14 pujat.
 
david80scat
Sushinchu
Sushinchu
Entrades: 476
Membre des de: dv. 05 abr. 2013, 15:14

Re: Prodigiosa: Les aventures de Ladybug & Gat Noir [15/52] [1080p][Multi Audio&Subs.]

dc. 17 abr. 2019, 17:45

Capítol 16 acabat de pujar.
El capítol 15 m'he fixat que en la captura no contenia els substítols. Després de semana santa com que sembla que emetran un capítol per dia, i això significarà sense talls, pensaré en tornar-lo a capturar.

Qui està connectat

Usuaris navegant en aquest fòrum: No hi ha cap usuari registrat i 3 visitants