Anime i manga en català

Moderadors: Maki, wachimiro

 
Avatar de l’usuari
worldofjake2012
Arashinchu
Arashinchu
Entrades: 80
Membre des de: dt. 29 nov. 2016, 22:59
Contacta:

[MEGA] Las aventuras de Wilbur y Charlotte [HD 1080p Triaudio] [1973]

dl. 27 maig 2019, 00:11

LAS AVENTURAS DE WILBUR Y CHARLOTTE
Imatge
ARGUMENTO:
¡Los milagros ocurren! El inmortal clásico escrito por E.B. White se hace realidad en esta maravillosa película musical de dibujos animados. Te divertirás y cantarás junto a la araña Charlotte cuando da una lección sobre la amistad, la confianza y el amor al cerdito Wilbur, a Templeton la rata y a otros animales de la granja.

FICHA TÉCNICA:
Título original: Charlotte's Web
Año original de emisión: 1973
País: Estados Unidos
Idioma original: Inglés
Director: Charles A. Nichols e Iwao Takamoto
Compañías: Paramount Pictures, Hanna-Barbera Productions, Sagittarius Productions
Género: Animación, musical, drama
Duración: 1 hora 34 minutos aproximadamente

FICHA SOBRE EL RELEASE:
Tamaño: 2.77 GB
Formato: MKV
Audios: Español castellano (con canciones en latino), español latino e inglés
Subtítulos: Español e inglés

MEDIAINFO:
Spoiler: mostra
General
Unique ID : 280893541582932471766951368902621295949 (0xD35220D7BDD76ED514D644963CB0754D)
Complete name : Charlottes.Web.1973.1080p.WEBRip.DD2.0.x264-monkee\Las aventuras de Wilbur y Charlotte - Charlotte's Web [1973] [WEBrip 1080p h.264 AC3 2.0 Esp-Lat-Eng + Subs Esp-Eng × woj2012].mkv
Format : Matroska
Format version : Version 4
File size : 2.77 GiB
Duration : 1 h 34 min
Overall bit rate mode : Variable
Overall bit rate : 4 209 kb/s
Encoded date : UTC 2019-05-26 21:25:20
Writing application : mkvmerge v33.1.0 ('Primrose') 64-bit
Writing library : libebml v1.3.7 + libmatroska v1.5.0

Video
ID : 1
Format : AVC
Format/Info : Advanced Video Codec
Format profile : High@L4
Format settings : CABAC / 4 Ref Frames
Format settings, CABAC : Yes
Format settings, RefFrames : 4 frames
Codec ID : V_MPEG4/ISO/AVC
Duration : 1 h 34 min
Bit rate mode : Variable
Bit rate : 3 598 kb/s
Maximum bit rate : 4 510 kb/s
Width : 1 920 pixels
Height : 1 080 pixels
Display aspect ratio : 16:9
Frame rate mode : Constant
Frame rate : 23.976 (24000/1001) FPS
Color space : YUV
Chroma subsampling : 4:2:0
Bit depth : 8 bits
Scan type : Progressive
Bits/(Pixel*Frame) : 0.072
Stream size : 2.37 GiB (85%)
Default : Yes
Forced : No

Audio #1
ID : 2
Format : AC-3
Format/Info : Audio Coding 3
Commercial name : Dolby Digital
Codec ID : A_AC3
Duration : 1 h 34 min
Bit rate mode : Constant
Bit rate : 192 kb/s
Channel(s) : 2 channels
Channel layout : L R
Sampling rate : 48.0 kHz
Frame rate : 31.250 FPS (1536 SPF)
Bit depth : 16 bits
Compression mode : Lossy
Delay relative to video : -21 ms
Stream size : 129 MiB (5%)
Title : Las aventuras de Wilbur y Charlotte [Castellano]
Language : Spanish
Service kind : Complete Main
Default : Yes
Forced : No

Audio #2
ID : 3
Format : AC-3
Format/Info : Audio Coding 3
Commercial name : Dolby Digital
Codec ID : A_AC3
Duration : 1 h 34 min
Bit rate mode : Constant
Bit rate : 192 kb/s
Channel(s) : 2 channels
Channel layout : L R
Sampling rate : 48.0 kHz
Frame rate : 31.250 FPS (1536 SPF)
Bit depth : 16 bits
Compression mode : Lossy
Delay relative to video : -21 ms
Stream size : 129 MiB (5%)
Title : La telaraña de Charlotte [Latino]
Language : Spanish
Service kind : Complete Main
Default : No
Forced : No

Audio #3
ID : 4
Format : E-AC-3
Format/Info : Enhanced AC-3
Commercial name : Dolby Digital Plus
Codec ID : A_EAC3
Duration : 1 h 34 min
Bit rate mode : Constant
Bit rate : 224 kb/s
Channel(s) : 2 channels
Channel layout : L R
Sampling rate : 48.0 kHz
Frame rate : 31.250 FPS (1536 SPF)
Compression mode : Lossy
Delay relative to video : -21 ms
Stream size : 151 MiB (5%)
Title : Charlotte's Web [English] [V.O.]
Language : English
Service kind : Complete Main
Default : No
Forced : No

Text #1
ID : 5
Format : UTF-8
Codec ID : S_TEXT/UTF8
Codec ID/Info : UTF-8 Plain Text
Duration : 1 h 32 min
Bit rate : 67 b/s
Count of elements : 909
Stream size : 45.7 KiB (0%)
Title : [Español]
Language : Spanish
Default : No
Forced : No

Text #2
ID : 6
Format : UTF-8
Codec ID : S_TEXT/UTF8
Codec ID/Info : UTF-8 Plain Text
Duration : 1 h 32 min
Bit rate : 91 b/s
Count of elements : 1762
Stream size : 61.9 KiB (0%)
Title : [English]
Language : English
Default : No
Forced : No

CAPTURAS:
Imatge

ENLACE:
 
Avatar de l’usuari
worldofjake2012
Arashinchu
Arashinchu
Entrades: 80
Membre des de: dt. 29 nov. 2016, 22:59
Contacta:

Re: [MEGA] Las aventuras de Wilbur y Charlotte [HD 1080p Triaudio] [1973]

dl. 27 maig 2019, 00:12

Si algú té el doblatge català d'aquesta gran pel·li, digueu aquí: viewtopic.php?f=13&p=359649#p359649

Qui està connectat

Usuaris navegant en aquest fòrum: No hi ha cap usuari registrat i 3 visitants