Anime i manga en català

Moderadors: Kero, Steve Maister

 
Avatar de l’usuari
Angelus Oriol
Sanshinchu
Sanshinchu
Entrades: 209
Membre des de: dg. 26 maig 2013, 09:37

Royal Space Force

ds. 22 març 2014, 11:51

Jelous! Podrieu pujar la pel·licula Royal Space Force en català, per favor?
L'he estat buscant per Internet, emule i el cercador i no hi ha hagut sort...

Moltes Gràcies!
 
Avatar de l’usuari
snatcher
Arashinchu
Arashinchu
Entrades: 96
Membre des de: ds. 24 ago. 2013, 19:31
Ubicació: Barcelona

Re: Royal Space Force

dg. 04 maig 2014, 21:44

ed2k: [AS].Royal.Space.Force.mkv  [3.49 Gb]

Spoiler: mostra
General
Complete name : F:\emule\incoming\[AS].Royal.Space.Force.mkv
Format : Matroska
Format version : Version 2
File size : 3.49 GiB
Duration : 1h 59mn
Overall bit rate : 4 163 Kbps
Encoded date : UTC 2010-06-08 09:28:47
Writing application : mkvmerge v3.2.0 ('Beginnings') built on Feb 12 2010 16:46:17
Writing library : libebml v0.7.9 + libmatroska v0.8.1

Video
ID : 1
Format : AVC
Format/Info : Advanced Video Codec
Format profile : High@L5.1
Format settings, CABAC : Yes
Format settings, ReFrames : 16 frames
Codec ID : V_MPEG4/ISO/AVC
Duration : 1h 59mn
Bit rate : 3 200 Kbps
Width : 1 280 pixels
Height : 736 pixels
Display aspect ratio : 1.739
Frame rate mode : Constant
Frame rate : 23.976 fps
Color space : YUV
Chroma subsampling : 4:2:0
Bit depth : 8 bits
Scan type : Progressive
Bits/(Pixel*Frame) : 0.142
Stream size : 2.61 GiB (75%)
Writing library : x264 core 56
Encoding settings : cabac=1 / ref=16 / deblock=1:0:0 / analyse=0x3:0x133 / me=umh / hadamard=0 / subme=7 / brdo=1 / mixed_ref=1 / me_range=32 / chroma_me=1 / trellis=2 / 8x8dct=1 / cqm=0 / deadzone=0,0 / chroma_qp_offset=0 / threads=1 / nr=0 / decimate=0 / mbaff=0 / bframes=16 / b_pyramid=1 / b_adapt=1 / b_bias=0 / direct=3 / wpredb=1 / bime=1 / keyint=200 / keyint_min=20 / scenecut=40 / rc=2pass / bitrate=3200 / ratetol=1.0 / rceq='blurCplx^(1-qComp)' / qcomp=0.60 / qpmin=15 / qpmax=25 / qpstep=4 / cplxblur=20.0 / qblur=0.5 / ip_ratio=1.20 / pb_ratio=1.25
Default : Yes
Forced : No

Audio #1
ID : 2
Format : AC-3
Format/Info : Audio Coding 3
Mode extension : CM (complete main)
Format settings, Endianness : Big
Codec ID : A_AC3
Duration : 1h 59mn
Bit rate mode : Constant
Bit rate : 640 Kbps
Channel(s) : 6 channels
Channel positions : Front: L C R, Side: L R, LFE
Sampling rate : 48.0 KHz
Bit depth : 16 bits
Compression mode : Lossy
Stream size : 549 MiB (15%)
Title : Japonés
Language : Japanese
Default : Yes
Forced : No

Audio #2
ID : 3
Format : AC-3
Format/Info : Audio Coding 3
Mode extension : CM (complete main)
Format settings, Endianness : Big
Codec ID : A_AC3/BSID9
Duration : 1h 59mn
Bit rate mode : Constant
Bit rate : 160 Kbps
Channel(s) : 2 channels
Channel positions : Front: L R
Sampling rate : 22.05 KHz
Bit depth : 16 bits
Compression mode : Lossy
Stream size : 137 MiB (4%)
Title : Español
Language : Spanish
Default : No
Forced : No

Audio #3
ID : 4
Format : AC-3
Format/Info : Audio Coding 3
Mode extension : CM (complete main)
Format settings, Endianness : Big
Codec ID : A_AC3
Duration : 1h 59mn
Bit rate mode : Constant
Bit rate : 160 Kbps
Channel(s) : 2 channels
Channel positions : Front: L R
Sampling rate : 48.0 KHz
Bit depth : 16 bits
Compression mode : Lossy
Stream size : 137 MiB (4%)
Title : Catalán
Language : Catalan
Default : No
Forced : No

Text #1
ID : 5
Format : ASS
Codec ID : S_TEXT/ASS
Codec ID/Info : Advanced Sub Station Alpha
Compression mode : Lossless
Title : Español
Language : Spanish
Default : Yes
Forced : No

Text #2
ID : 6
Format : ASS
Codec ID : S_TEXT/ASS
Codec ID/Info : Advanced Sub Station Alpha
Compression mode : Lossless
Title : Catalán
Language : Catalan
Default : No
Forced : No


Sóc l'única font en eMule, així que paciència :xiulant:

EDIT:
És un dual japonès-català. El castellà no és reproduïble i no entenc el per què...
 
Avatar de l’usuari
Angelus Oriol
Sanshinchu
Sanshinchu
Entrades: 209
Membre des de: dg. 26 maig 2013, 09:37

Re: Royal Space Force

dj. 08 maig 2014, 19:48

wow!! pensava que no existia cap versió en català!!

moltíssimes gràcies! el teu nick em sona moltíssim... ets el mateix snatcher que estava pel IRC fa anys? :profident:
 
Avatar de l’usuari
snatcher
Arashinchu
Arashinchu
Entrades: 96
Membre des de: ds. 24 ago. 2013, 19:31
Ubicació: Barcelona

Re: Royal Space Force

dv. 09 maig 2014, 12:33

Estava al IRC canal #frikilandia de la revista loading xD
 
Avatar de l’usuari
Frydivx
Sanshinchu
Sanshinchu
Entrades: 258
Membre des de: dc. 23 maig 2012, 17:59

Re: Royal Space Force

dv. 09 maig 2014, 13:40

Se que es molt demanar i pot sonar algo egoista pero em podries passar el audio en catalá? (si fós possible, es clar).

Es que la vull afegir a una altra versió, no us preucopeu que no la pujaré a cap lloc ( tampoc en sabria, jeje), simplement es per mi.

Gràcies.

PD: si no es pot no es pot, no hi ha cap problema. :yeah:

Salut!
 
Avatar de l’usuari
snatcher
Arashinchu
Arashinchu
Entrades: 96
Membre des de: ds. 24 ago. 2013, 19:31
Ubicació: Barcelona

Re: Royal Space Force

dv. 09 maig 2014, 15:03

Frydivx ha escrit:
Se que es molt demanar i pot sonar algo egoista pero em podries passar el audio en catalá? (si fós possible, es clar).

Es que la vull afegir a una altra versió, no us preucopeu que no la pujaré a cap lloc ( tampoc en sabria, jeje), simplement es per mi.

Gràcies.

PD: si no es pot no es pot, no hi ha cap problema. :yeah:

Salut!


cap problema ;)

https://mega.co.nz/#!G1xmBahB!5HBA2ETC2 ... MZU5K8tdJ0
 
Avatar de l’usuari
Frydivx
Sanshinchu
Sanshinchu
Entrades: 258
Membre des de: dc. 23 maig 2012, 17:59

Re: Royal Space Force

ds. 10 maig 2014, 17:21

Heyy gràcies Snatcher, m'ha anat de conya. :profident:

Salut!
 
Avatar de l’usuari
kakihara
Usuari
Usuari
Entrades: 20
Membre des de: dg. 04 gen. 2015, 03:54

Re: Royal Space Force

dt. 02 gen. 2018, 14:23

He arribat tard. Alguna possibilitat de repujar aquesta pel·li a qualsevol servidor o torrent?

En el seu dia no la vaig veure i el diseny de personatges m'encanta.
 
Avatar de l’usuari
xagasa
Ryushinchu
Ryushinchu
Entrades: 2915
Membre des de: dl. 26 maig 2014, 10:16
Ubicació: Planeta M2

Re: Royal Space Force

dt. 02 gen. 2018, 15:44

El link del àudio encara funciona.

Qui està connectat

Usuaris navegant en aquest fòrum: No hi ha cap usuari registrat i 1 visitant