Anime i manga en català

Moderadors: Moderadors, Webmaster

 
Avatar de l’usuari
Bilkoff
Moderadors
Moderadors
Entrades: 785
Membre des de: dt. 05 oct. 2004, 19:22
Ubicació: Borriana
Contacta:

Me he carregat un post XD

dg. 05 jul. 2015, 22:57

He vist que hi han nous tags per a afegir links al jdownloader amb click'n'load i els he provat. La conseqüència: post trencat XD El post està a DD i altres mètodes i es diu Bola de Drac Z La Batalla dels Déus. He posat els dos tags nous (jdmp i jd) per provar-los i ara no puc accedir al post.

Per el que poguera passar abans he copiat tot el text del post (les dues ultimes linees son el que he ficat de nou):
Post
[center][color=#8040FF][size=150]Bola de Drac Z La Batalla dels Déus[/size]
ドラゴンボールZ 神と神 Doragon Boru Zetto: Kami to Kami[/color]
[img]http://i1274.photobucket.com/albums/y434/Bilkoff_/PostercatalaDBZ_BatallaDelsdeacuteus_japanzoneCat__zps51f834e0.jpg[/img][/center]

ANY: 2013
DURACIÓ: 85 min.
DIRECTOR: Masahiro Hosoda
GUIO: Yūsuke Watanabe
MÚSICA: Norihito Sumitomo
PRODUCTOR: Hashimoto Kunio
SINOPSIS: "Algunos años después de la batalla con Majin Buu, Bils, el dios de la destrucción, encargado de mantener el equilibrio del universo, se ha despertado de un largo sueño. Al escuchar rumores sobre un saiyajin que ha vencido a Freezer, Bils parte a la búsqueda de Goku. Emocionado por el hecho de que haya aparecido, después de tanto tiempo, un oponente tan poderoso, Goku ignora las advertencias de Kaito y decide enfrentarse a él."

Contenidor: mkv.
Formats: x264, ac3 i srt.
Àudio: Japonès, Castellà, català i basc.
Subtítols: Castellà, català, i basc.
Qualitat: Rip del blu-ray original.
Mida total: 4'37 Gb (1DVD) partida en 5 parts.

[ahide=Report Mediainfo][code]General
Unique ID                                : 210646589849619096529205463234239261152 (0x9E790EB8CECE4E5882530E0C67DFE9E0)
Complete name                            : H:\Dragon Ball Z Kami to Kami.mkv
Format                                   : Matroska
Format version                           : Version 4 / Version 2
File size                                : 4.37 GiB
Duration                                 : 1h 25mn
Overall bit rate                         : 7 354 Kbps
Movie name                               : Doragon bôru Z: Kami to kami
Encoded date                             : UTC 2014-11-09 22:57:13
Writing application                      : mkvmerge v7.3.0 ('Nouages') 32bit built on Oct 22 2014 18:44:01
Writing library                          : libebml v1.3.0 + libmatroska v1.4.1
DURATION                                 : 01:24:27.187000000
NUMBER_OF_FRAMES                         : 1102
NUMBER_OF_BYTES                          : 41547
_STATISTICS_WRITING_APP                  : mkvmerge v7.3.0 ('Nouages') 32bit built on Oct 22 2014 18:44:01
_STATISTICS_WRITING_DATE_UTC             : 2014-11-09 22:57:13
_STATISTICS_TAGS                         : BPS DURATION NUMBER_OF_FRAMES NUMBER_OF_BYTES

Video
ID                                       : 1
Format                                   : AVC
Format/Info                              : Advanced Video Codec
Format profile                           : High@L4.1
Format settings, CABAC                   : Yes
Format settings, ReFrames                : 4 frames
Codec ID                                 : V_MPEG4/ISO/AVC
Duration                                 : 1h 25mn
Bit rate                                 : 4 790 Kbps
Width                                    : 1 920 pixels
Height                                   : 1 080 pixels
Display aspect ratio                     : 16:9
Frame rate mode                          : Constant
Frame rate                               : 23.976 fps
Color space                              : YUV
Chroma subsampling                       : 4:2:0
Bit depth                                : 8 bits
Scan type                                : Progressive
Bits/(Pixel*Frame)                       : 0.096
Stream size                              : 2.76 GiB (63%)
Writing library                          : x264 core 142 r2479 dd79a61
Encoding settings                        : cabac=1 / ref=4 / deblock=1:1:1 / analyse=0x3:0x133 / me=umh / subme=10 / psy=1 / psy_rd=0.40:0.00 / mixed_ref=1 / me_range=24 / chroma_me=1 / trellis=2 / 8x8dct=1 / cqm=0 / deadzone=21,11 / fast_pskip=1 / chroma_qp_offset=-2 / threads=6 / lookahead_threads=1 / sliced_threads=0 / nr=0 / decimate=1 / interlaced=0 / bluray_compat=0 / constrained_intra=0 / bframes=10 / b_pyramid=2 / b_adapt=2 / b_bias=0 / direct=3 / weightb=1 / open_gop=0 / weightp=2 / keyint=240 / keyint_min=23 / scenecut=40 / intra_refresh=0 / rc_lookahead=60 / rc=2pass / mbtree=1 / bitrate=4790 / ratetol=1.0 / qcomp=0.60 / qpmin=0 / qpmax=69 / qpstep=4 / cplxblur=20.0 / qblur=0.5 / vbv_maxrate=62500 / vbv_bufsize=78125 / nal_hrd=none / filler=0 / ip_ratio=1.40 / aq=1:0.60
Default                                  : Yes
Forced                                   : No

Audio #1
ID                                       : 2
Format                                   : AC-3
Format/Info                              : Audio Coding 3
Mode extension                           : CM (complete main)
Format settings, Endianness              : Big
Codec ID                                 : A_AC3
Duration                                 : 1h 25mn
Bit rate mode                            : Constant
Bit rate                                 : 640 Kbps
Channel(s)                               : 6 channels
Channel positions                        : Front: L C R, Side: L R, LFE
Sampling rate                            : 48.0 KHz
Bit depth                                : 16 bits
Compression mode                         : Lossy
Stream size                              : 390 MiB (9%)
Language                                 : Japanese
Default                                  : Yes
Forced                                   : No

Audio #2
ID                                       : 3
Format                                   : AC-3
Format/Info                              : Audio Coding 3
Mode extension                           : CM (complete main)
Format settings, Endianness              : Big
Codec ID                                 : A_AC3
Duration                                 : 1h 25mn
Bit rate mode                            : Constant
Bit rate                                 : 640 Kbps
Channel(s)                               : 6 channels
Channel positions                        : Front: L C R, Side: L R, LFE
Sampling rate                            : 48.0 KHz
Bit depth                                : 16 bits
Compression mode                         : Lossy
Stream size                              : 390 MiB (9%)
Language                                 : Spanish
Default                                  : No
Forced                                   : No

Audio #3
ID                                       : 4
Format                                   : AC-3
Format/Info                              : Audio Coding 3
Mode extension                           : CM (complete main)
Format settings, Endianness              : Big
Codec ID                                 : A_AC3
Duration                                 : 1h 25mn
Bit rate mode                            : Constant
Bit rate                                 : 640 Kbps
Channel(s)                               : 6 channels
Channel positions                        : Front: L C R, Side: L R, LFE
Sampling rate                            : 48.0 KHz
Bit depth                                : 16 bits
Compression mode                         : Lossy
Stream size                              : 390 MiB (9%)
Language                                 : Catalan
Default                                  : No
Forced                                   : No

Audio #4
ID                                       : 5
Format                                   : AC-3
Format/Info                              : Audio Coding 3
Mode extension                           : CM (complete main)
Format settings, Endianness              : Big
Codec ID                                 : A_AC3
Duration                                 : 1h 25mn
Bit rate mode                            : Constant
Bit rate                                 : 640 Kbps
Channel(s)                               : 6 channels
Channel positions                        : Front: L C R, Side: L R, LFE
Sampling rate                            : 48.0 KHz
Bit depth                                : 16 bits
Compression mode                         : Lossy
Stream size                              : 390 MiB (9%)
Language                                 : Basque
Default                                  : No
Forced                                   : No

Text #1
ID                                       : 6
Format                                   : UTF-8
Codec ID                                 : S_TEXT/UTF8
Codec ID/Info                            : UTF-8 Plain Text
Title                                    : forced
Language                                 : Spanish
Default                                  : Yes
Forced                                   : No

Text #2
ID                                       : 7
Format                                   : UTF-8
Codec ID                                 : S_TEXT/UTF8
Codec ID/Info                            : UTF-8 Plain Text
Language                                 : Spanish
Default                                  : No
Forced                                   : No

Text #3
ID                                       : 8
Format                                   : UTF-8
Codec ID                                 : S_TEXT/UTF8
Codec ID/Info                            : UTF-8 Plain Text
Title                                    : forced
Language                                 : Basque
Default                                  : No
Forced                                   : No

Text #4
ID                                       : 9
Format                                   : UTF-8
Codec ID                                 : S_TEXT/UTF8
Codec ID/Info                            : UTF-8 Plain Text
Language                                 : Basque
Default                                  : No
Forced                                   : No

Text #5
ID                                       : 10
Format                                   : UTF-8
Codec ID                                 : S_TEXT/UTF8
Codec ID/Info                            : UTF-8 Plain Text
Title                                    : forced
Language                                 : Catalan
Default                                  : No
Forced                                   : No

Text #6
ID                                       : 11
Format                                   : UTF-8
Codec ID                                 : S_TEXT/UTF8
Codec ID/Info                            : UTF-8 Plain Text
Language                                 : Catalan
Default                                  : No
Forced                                   : No

Menu
00:00:36.335                             : :(unnamed)
00:05:59.231                             : :(unnamed)
00:12:36.336                             : :(unnamed)
00:17:58.783                             : :(unnamed)
00:20:30.643                             : :(unnamed)
00:26:14.903                             : :(unnamed)
00:31:17.122                             : :(unnamed)
00:36:52.290                             : :(unnamed)
00:42:06.104                             : :(unnamed)
00:51:20.449                             : :(unnamed)
01:00:30.540                             : :(unnamed)
01:07:08.938                             : :(unnamed)
01:11:25.445                             : :(unnamed)
01:17:20.424                             : :(unnamed)
01:20:53.429                             : :(unnamed)[/code][/ahide]

[size=175]Descàrrega[/size]
[size=150][url=https://1fichier.com/?3ptc70iiea]1fichier[/url]
[url=https://yadi.sk/d/Uzlmn7fOdrCiv]yandex[/url][/size]
[jdmp]https://1fichier.com/?3ptc70iiea[/jdmp]
[jd]https://yadi.sk/d/Uzlmn7fOdrCiv[/jd]


Si es el més fàcil es pot esborrar i en faig un altre ja que tinc el codic.
 
Avatar de l’usuari
wachimiro
Moderadors
Moderadors
Entrades: 1713
Membre des de: dg. 19 feb. 2006, 16:53
Ubicació: China

Re: Me he carregat un post XD

dg. 05 jul. 2015, 23:33

Doncs no puc editar-lo des del panell de moderador. Com només tenia 2 respostes, millor crea'n un de nou, i ja elimino l'anterior.

Si li tens estima al post, si vols ho podem mirar i segurament el podem recuperar, però si tens el codi, menys feina per a tots si en fas un de nou :yeah:.
Si teniu cap problema per descarregar amb JDownloader feu servir aquesta versió i actualitzeu aquí la trobareu. -->>JDownloader <<--
 
Avatar de l’usuari
fabrebatalla18
Ryushinchu
Ryushinchu
Entrades: 2967
Membre des de: ds. 11 juny 2011, 17:30

Re: Me he carregat un post XD

dl. 06 jul. 2015, 01:38

A mi m'interesa usar aquells "tags", algu podria explicar perque li ha fallat a Bilkoff i com s'hauria de fer per a no "carregarte" el post on el probis?

Gracies.
 
Avatar de l’usuari
Bilkoff
Moderadors
Moderadors
Entrades: 785
Membre des de: dt. 05 oct. 2004, 19:22
Ubicació: Borriana
Contacta:

Re: Me he carregat un post XD

dl. 06 jul. 2015, 18:08

Ja el he tornat a crear, pots esborrar el antic.

PD: S'haurien de mirar els tags aquests, que qualsevol es pot carregar un fil sencer.
 
Avatar de l’usuari
Elwe
Moderadors
Moderadors
Entrades: 1904
Membre des de: ds. 11 oct. 2003, 19:57

Re: Me he carregat un post XD

dj. 09 jul. 2015, 23:18

Doncs mira que feia un any que hi eren. :P

De moment els trec i ja m'ho miraré quan tingui temps. :huh:

:adeu:

Qui està connectat

Usuaris navegant en aquest fòrum: No hi ha cap usuari registrat i 1 visitant