Anime i manga en català

Moderadors: Steve Maister, wachimiro

 
Avatar de l’usuari
intervención
Sushinchu
Sushinchu
Entrades: 581
Membre des de: dc. 19 juny 2013, 21:30
Ubicació: Barcelona
Contacta:

[BT] Dragon Ball GT [960p] [4-Audio ESP-CAT-GLG-JAP AC3]

ds. 05 des. 2015, 20:44

Muntatge: TéConPastas
Vídeos 960p: Flux
Audio Castellà: Flux
Audio Galleg: Flux
Audio Català: Albert Wesker
Audio Japonés: DragonBox (Flux)


Imatge
Dragon Ball GT "TCP Edition"

Información de la release:

  • Audio: Español, Catalán, Gallego, Japonés
  • Video: Dragon Box upscaled a 960p + filtro nitido
  • Subtítulos: Forzados gallego, español completos y forzados español.


Tecnicismos:

Mediainfo corto:
Video: MPEG4 Video (H264) 1280x960 23.976fps [V: Dragon Ball GT (Upscale) [jpn] (h264 high L3.2, yuv420p, 1280x960) [default,forced]]
Audio: Dolby AC3 48000Hz stereo 256kbps [A: Español [spa] (ac3, 48000 Hz, stereo, 256 kb/s)]
Audio: Dolby AC3 48000Hz stereo 192kbps [A: Catalán [cat] (ac3, 48000 Hz, stereo, 192 kb/s)]
Audio: Dolby AC3 48000Hz stereo 128kbps [A: Galego [glg] (ac3, 48000 Hz, stereo, 128 kb/s)]
Audio: Dolby AC3 48000Hz stereo 256kbps [A: Japonés [jpn] (ac3, 48000 Hz, stereo, 256 kb/s)]
Subtitle: UTF-8 [S: Forzados Español Castizo [spa] (srt) [default,forced]]
Subtitle: UTF-8 [S: Español Castizo [spa] (srt)]


Mediainfo largo:
General
Unique ID                      : 218499180844464347399883278664373362061 (0xA461695974CACA25B998BECE4B63DD8D)
Format                         : Matroska
Format version                 : Version 4 / Version 2
File size                      : 411 MiB
Duration                       : 24mn 38s
Overall bit rate               : 2 329 Kbps
Movie name                     : Más anime en http://telegram.me/TeConPastas. Té con Pastas, donde la calidad importa
Encoded date                   : UTC 2015-11-19 23:48:25
Writing application            : mkvmerge v8.4.0 ('A better way to fly') 64bit
Writing library                : libebml v1.3.1 + libmatroska v1.4.2
DURATION                       : 00:00:29.990000000
NUMBER_OF_FRAMES               : 12
NUMBER_OF_BYTES                : 352
_STATISTICS_WRITING_APP        : mkvmerge v8.4.0 ('A better way to fly') 64bit
_STATISTICS_WRITING_DATE_UTC   : 2015-11-19 23:48:25
_STATISTICS_TAGS               : BPS DURATION NUMBER_OF_FRAMES NUMBER_OF_BYTES

Video
ID                             : 1
Format                         : AVC
Format/Info                    : Advanced Video Codec
Format profile                 : High@L3.2
Format settings, CABAC         : Yes
Format settings, ReFrames      : 3 frames
Codec ID                       : V_MPEG4/ISO/AVC
Duration                       : 24mn 38s
Bit rate                       : 1 494 Kbps
Width                          : 1 280 pixels
Height                         : 960 pixels
Display aspect ratio           : 4:3
Frame rate mode                : Constant
Frame rate                     : 23.976 fps
Color space                    : YUV
Chroma subsampling             : 4:2:0
Bit depth                      : 8 bits
Scan type                      : Progressive
Bits/(Pixel*Frame)             : 0.051
Stream size                    : 256 MiB (62%)
Title                          : Dragon Ball GT (Upscale)
Writing library                : x264 core 93 r1538bm bd72d46
Encoding settings              : cabac=1 / ref=3 / deblock=1:1:1 / analyse=0x3:0x13 / me=umh / subme=7 / psy=1 / psy_rd=1.00:0.00 / mixed_ref=1 / me_range=16 / chroma_me=1 / trellis=1 / 8x8dct=1 / cqm=0 / deadzone=21,11 / fast_pskip=1 / chroma_qp_offset=-2 / threads=4 / sliced_threads=1 / slices=4 / nr=0 / decimate=1 / interlaced=0 / constrained_intra=0 / bframes=0 / wpredp=2 / keyint=250 / keyint_min=25 / scenecut=40 / intra_refresh=0 / rc_lookahead=40 / rc=2pass / mbtree=1 / bitrate=1494 / ratetol=1.0 / qcomp=0.60 / qpmin=10 / qpmax=51 / qpstep=4 / cplxblur=20.0 / qblur=0.5 / ip_ratio=1.40 / aq=1:1.00
Language                       : Japanese
Default                        : Yes
Forced                         : Yes

Audio #1
ID                             : 2
Format                         : AC-3
Format/Info                    : Audio Coding 3
Mode extension                 : CM (complete main)
Format settings, Endianness    : Big
Codec ID                       : A_AC3
Duration                       : 24mn 38s
Bit rate mode                  : Constant
Bit rate                       : 256 Kbps
Channel(s)                     : 2 channels
Channel positions              : Front: L R
Sampling rate                  : 48.0 KHz
Compression mode               : Lossy
Stream size                    : 45.1 MiB (11%)
Title                          : Español
Language                       : Spanish
Default                        : No
Forced                         : No

Audio #2
ID                             : 3
Format                         : AC-3
Format/Info                    : Audio Coding 3
Mode extension                 : CM (complete main)
Format settings, Endianness    : Big
Codec ID                       : A_AC3
Duration                       : 24mn 38s
Bit rate mode                  : Constant
Bit rate                       : 192 Kbps
Channel(s)                     : 2 channels
Channel positions              : Front: L R
Sampling rate                  : 48.0 KHz
Compression mode               : Lossy
Stream size                    : 33.8 MiB (8%)
Title                          : Catalán
Language                       : Catalan
Default                        : No
Forced                         : No

Audio #3
ID                             : 4
Format                         : AC-3
Format/Info                    : Audio Coding 3
Mode extension                 : CM (complete main)
Format settings, Endianness    : Big
Codec ID                       : A_AC3
Duration                       : 24mn 38s
Bit rate mode                  : Constant
Bit rate                       : 128 Kbps
Channel(s)                     : 2 channels
Channel positions              : Front: L R
Sampling rate                  : 48.0 KHz
Compression mode               : Lossy
Stream size                    : 22.6 MiB (5%)
Title                          : Galego
Language                       : Galician
Default                        : No
Forced                         : No

Audio #4
ID                             : 5
Format                         : AC-3
Format/Info                    : Audio Coding 3
Mode extension                 : CM (complete main)
Format settings, Endianness    : Big
Codec ID                       : A_AC3
Duration                       : 24mn 38s
Bit rate mode                  : Constant
Bit rate                       : 256 Kbps
Channel(s)                     : 2 channels
Channel positions              : Front: L R
Sampling rate                  : 48.0 KHz
Compression mode               : Lossy
Stream size                    : 45.1 MiB (11%)
Title                          : Japonés
Language                       : Japanese
Default                        : No
Forced                         : No

Text #1
ID                             : 6
Format                         : UTF-8
Codec ID                       : S_TEXT/UTF8
Codec ID/Info                  : UTF-8 Plain Text
Title                          : Forzados Español Castizo
Language                       : Spanish
Default                        : Yes
Forced                         : Yes

Text #2
ID                             : 7
Format                         : UTF-8
Codec ID                       : S_TEXT/UTF8
Codec ID/Info                  : UTF-8 Plain Text
Title                          : Español Castizo
Language                       : Spanish
Default                        : No
Forced                         : No

Text #3
ID                             : 8
Format                         : UTF-8
Codec ID                       : S_TEXT/UTF8
Codec ID/Info                  : UTF-8 Plain Text
Title                          : Forzados galego
Language                       : Galician
Default                        : No
Forced                         : Yes





Fuentes del audio:
  • Español: DVDRip
  • Catalán: DVDRip de Manga Films y Selecta Visión
  • Gallego: DVDRip/TVRip
  • Japonés: Dragon Box

Arreglos varios hechos por albert wesker

Fuentes de los subtítulos:
  • DVDRip de Selecta Visión, cortesía de Finestres

Imágenes
Spoiler: mostra
ImatgeImatge

ImatgeImatge

ImatgeImatge

ImatgeImatge

ImatgeImatge

ImatgeImatge

ImatgeImatge

ImatgeImatge

ImatgeImatge

ImatgeImatge

ImatgeImatge

ImatgeImatge

ImatgeImatge


Album



Aclaracions:

Aquesta release està realitzada entre amics i destinat a un públic de parla castellana, per lo que la primera pista és en castellà i la segona en català.

Gràcies a l'albert wesker per cedir-nos els audios i donar-nos el vistiplau.




Links:
intervención l’ha editat per darrera vegada el dia: ds. 20 gen. 2018, 18:17, en total s’ha editat 3 vegades.
Vols que seedegi la teva release per Torrent? Envia'm un MP!
Imatge
Manga i Anime en Català!
Si creieu que tardem massa a treure el proper capítol de qualsevol sèrie, demaneu-nos que ens afanyem! Això ens motiva!!
Imatge@TeConPastas
 
nebur2002
Usuari
Usuari
Entrades: 2
Membre des de: ds. 12 des. 2015, 15:38

Re: [BT] Dragon Ball GT [960p] [4-Audio ESP-CAT-GLG-JAP AC3]

ds. 12 des. 2015, 15:41

Hola,

primer de tot, moltes gràcies per l'aportament, és la millor release que he trobat, ha estat un gran treball. Però també vinc a demanar-vos que falta el capítol 41, tant via Torrent com via Telegram. Si us plau el podrieu penjar?

Moltes gràcies!
 
Avatar de l’usuari
intervención
Sushinchu
Sushinchu
Entrades: 581
Membre des de: dc. 19 juny 2013, 21:30
Ubicació: Barcelona
Contacta:

Re: [BT] Dragon Ball GT [960p] [4-Audio ESP-CAT-GLG-JAP AC3]

ds. 12 des. 2015, 15:51

nebur2002 ha escrit:
Hola,

primer de tot, moltes gràcies per l'aportament, és la millor release que he trobat, ha estat un gran treball. Però també vinc a demanar-vos que falta el capítol 41, tant via Torrent com via Telegram. Si us plau el podrieu penjar?

Moltes gràcies!



Hostia p******

El pujo quan el tingui :S Sorry!
Vols que seedegi la teva release per Torrent? Envia'm un MP!
Imatge
Manga i Anime en Català!
Si creieu que tardem massa a treure el proper capítol de qualsevol sèrie, demaneu-nos que ens afanyem! Això ens motiva!!
Imatge@TeConPastas
 
nebur2002
Usuari
Usuari
Entrades: 2
Membre des de: ds. 12 des. 2015, 15:38

Re: [BT] Dragon Ball GT [960p] [4-Audio ESP-CAT-GLG-JAP AC3]

ds. 12 des. 2015, 16:25

Que ràpid!!

Gràcies de nou!!
 
Avatar de l’usuari
intervención
Sushinchu
Sushinchu
Entrades: 581
Membre des de: dc. 19 juny 2013, 21:30
Ubicació: Barcelona
Contacta:

Re: [BT] Dragon Ball GT [960p] [4-Audio ESP-CAT-GLG-JAP AC3]

ds. 12 des. 2015, 16:30

Ja està repujada a Telegram.

Actualitzo el torrent quan pugui :)

Gràcies per avisar, són d'aquestes coses que se't passen a vegades... ^^"
Vols que seedegi la teva release per Torrent? Envia'm un MP!
Imatge
Manga i Anime en Català!
Si creieu que tardem massa a treure el proper capítol de qualsevol sèrie, demaneu-nos que ens afanyem! Això ens motiva!!
Imatge@TeConPastas
 
Snaiper89
Usuari
Usuari
Entrades: 17
Membre des de: dc. 20 feb. 2013, 15:41

Re: [BT] Dragon Ball GT [960p] [4-Audio ESP-CAT-GLG-JAP AC3]

dl. 01 feb. 2016, 13:07

Descarregant!!!

Moltes gracies!! :)
 
Avatar de l’usuari
xagasa
Ryushinchu
Ryushinchu
Entrades: 2558
Membre des de: dl. 26 maig 2014, 10:16
Ubicació: Planeta M2

Re: [BT] Dragon Ball GT [960p] [4-Audio ESP-CAT-GLG-JAP AC3]

dv. 19 gen. 2018, 14:31

Bona tarda. Podrieu actualitzar el torrent? No inicia. Moltes gràcies.
 
Avatar de l’usuari
intervención
Sushinchu
Sushinchu
Entrades: 581
Membre des de: dc. 19 juny 2013, 21:30
Ubicació: Barcelona
Contacta:

Re: [BT] Dragon Ball GT [960p] [4-Audio ESP-CAT-GLG-JAP AC3]

ds. 20 gen. 2018, 18:16

Ja està, a frozenlayer
Vols que seedegi la teva release per Torrent? Envia'm un MP!
Imatge
Manga i Anime en Català!
Si creieu que tardem massa a treure el proper capítol de qualsevol sèrie, demaneu-nos que ens afanyem! Això ens motiva!!
Imatge@TeConPastas
 
Avatar de l’usuari
xagasa
Ryushinchu
Ryushinchu
Entrades: 2558
Membre des de: dl. 26 maig 2014, 10:16
Ubicació: Planeta M2

Re: [BT] Dragon Ball GT [960p] [4-Audio ESP-CAT-GLG-JAP AC3]

dg. 21 gen. 2018, 11:42

intervención ha escrit:
Ja està, a frozenlayer

Perfecte. Ja ha arribat al 100%. Moltes gràcies.
Es veu bastant bé i lo de tenir 4 àudios i subtítols la fa més interesant i lo millor àudio català de Albert Wesker. Salutacions. :moltbe:

Qui està connectat

Usuaris navegant en aquest fòrum: No hi ha cap usuari registrat i 1 visitant