Anime i manga en català

Moderadors: Steve Maister, wachimiro

 
DrEaMeR86
Arashinchu
Arashinchu
Entrades: 118
Membre des de: dt. 02 des. 2008, 16:09

[BT] Shinjuku La Ciutat Dels Dimonis -1988 [DVD-VHS][Cat-Eng-Jap]

dj. 26 maig 2016, 17:38

Del post de xagasa.
Imatge


Fa molts anys, Levih Rah va vendre la seva ànima al diable i ara té el poder
sobre les forces demoníaques. Com a part del tracte, Levih va convertir el districte
de Shinjuku de Tòquio en la capital dels monstres diabòlics i del mal. Ara, Rama Sayaka
i els seu amic Kyoya han d’endinsar-se en la ciutat dels dimonis per rescatar el pare de
Rama, que fa temps va enfrontar-se a Levih Rah sense èxit.

Release originalment de A-FanRips
General
Unique ID                                : 235163400948811121848090664707439175714 (0xB0EAD2D58EAAD5521E6C401D1073A822)
Complete name                            : [Animelliure] Demon City Shinjuku - Remastered [DVD-VHS][Cat-Jap-Eng].mkv
Format                                   : Matroska
Format version                           : Version 4 / Version 2
File size                                : 2.37 GiB
Duration                                 : 1h 19mn
Overall bit rate                         : 4 284 Kbps
Encoded date                             : UTC 2016-05-26 15:05:53
Writing application                      : mkvmerge v7.3.0 ('Nouages') 64bit built on Oct 23 2014 13:14:01
Writing library                          : libebml v1.3.0 + libmatroska v1.4.1
Attachements                             : FrutigerLTStd-LightCn.otf / SyntaxLTStd-Black.otf / VistaSansOT-Reg.otf
DURATION                                 : 01:17:34.920000000
NUMBER_OF_FRAMES                         : 193955
NUMBER_OF_BYTES                          : 74478720
_STATISTICS_WRITING_APP                  : mkvmerge v7.3.0 ('Nouages') 64bit built on Oct 23 2014 13:14:01
_STATISTICS_WRITING_DATE_UTC             : 2016-05-26 15:05:53
_STATISTICS_TAGS                         : BPS DURATION NUMBER_OF_FRAMES NUMBER_OF_BYTES

Video
ID                                       : 1
Format                                   : AVC
Format/Info                              : Advanced Video Codec
Format profile                           : High@L4.1
Format settings, CABAC                   : Yes
Format settings, ReFrames                : 9 frames
Codec ID                                 : V_MPEG4/ISO/AVC
Duration                                 : 1h 19mn
Bit rate                                 : 3 204 Kbps
Width                                    : 720 pixels
Height                                   : 480 pixels
Display aspect ratio                     : 4:3
Original display aspect ratio            : 3:2
Frame rate mode                          : Constant
Frame rate                               : 23.976 fps
Standard                                 : NTSC
Color space                              : YUV
Chroma subsampling                       : 4:2:0
Bit depth                                : 8 bits
Scan type                                : Progressive
Bits/(Pixel*Frame)                       : 0.387
Stream size                              : 1.72 GiB (73%)
Title                                    : [A-FanRips]
Writing library                          : x264 core 60 r895M 16b8f79
Encoding settings                        : cabac=1 / ref=9 / deblock=1:-2:-2 / analyse=0x3:0x113 / me=umh / subme=7 / rdcmp=psy / brdo=1 / mixed_ref=1 / me_range=16 / chroma_me=1 / trellis=0 / 8x8dct=1 / cqm=2 / deadzone=15,7 / chroma_qp_offset=0 / threads=3 / nr=0 / decimate=1 / mbaff=0 / bframes=16 / b_pyramid=1 / b_adapt=1 / b_bias=0 / direct=3 / wpredb=1 / bime=1 / keyint=250 / keyint_min=25 / scenecut=40(pre) / rc=2pass / bitrate=3204 / ratetol=1.0 / rceq='blurCplx^(1-qComp)' / qcomp=1.00 / qpmin=10 / qpmax=51 / qpstep=4 / cplxblur=20.0 / qblur=0.5 / ip_ratio=1.40 / pb_ratio=1.30 / aq=2:0.70
Language                                 : English
Default                                  : Yes
Forced                                   : No
DURATION                                 : 01:19:01.779000000
NUMBER_OF_FRAMES                         : 113689
NUMBER_OF_BYTES                          : 1900820175
_STATISTICS_WRITING_APP                  : mkvmerge v7.3.0 ('Nouages') 64bit built on Oct 23 2014 13:14:01
_STATISTICS_WRITING_DATE_UTC             : 2016-05-26 15:05:53
_STATISTICS_TAGS                         : BPS DURATION NUMBER_OF_FRAMES NUMBER_OF_BYTES

Audio #1
ID                                       : 2
Format                                   : MPEG Audio
Format version                           : Version 1
Format profile                           : Layer 3
Codec ID                                 : A_MPEG/L3
Codec ID/Hint                            : MP3
Duration                                 : 1h 19mn
Bit rate mode                            : Constant
Bit rate                                 : 128 Kbps
Channel(s)                               : 2 channels
Sampling rate                            : 48.0 KHz
Compression mode                         : Lossy
Delay relative to video                  : 8s 0ms
Stream size                              : 72.4 MiB (3%)
Writing library                          : LAME3.97
Language                                 : Catalan
Default                                  : Yes
Forced                                   : No

Audio #2
ID                                       : 3
Format                                   : DTS
Format/Info                              : Digital Theater Systems
Mode                                     : 16
Format settings, Endianness              : Big
Codec ID                                 : A_DTS
Duration                                 : 1h 19mn
Bit rate mode                            : Constant
Bit rate                                 : 754 Kbps
Channel(s)                               : 6 channels
Channel positions                        : Front: L C R, Side: L R, LFE
Sampling rate                            : 48.0 KHz
Bit depth                                : 16 bits
Compression mode                         : Lossy
Stream size                              : 426 MiB (18%)
Title                                    : DTS 5.1
Language                                 : Japanese
Default                                  : No
Forced                                   : No

Audio #3
ID                                       : 4
Format                                   : AC-3
Format/Info                              : Audio Coding 3
Mode extension                           : CM (complete main)
Format settings, Endianness              : Big
Codec ID                                 : A_AC3
Duration                                 : 1h 19mn
Bit rate mode                            : Constant
Bit rate                                 : 192 Kbps
Channel(s)                               : 2 channels
Channel positions                        : Front: L R
Sampling rate                            : 48.0 KHz
Bit depth                                : 16 bits
Compression mode                         : Lossy
Stream size                              : 109 MiB (4%)
Title                                    : AC3 2.0
Language                                 : English
Default                                  : No
Forced                                   : No

Text #1
ID                                       : 5
Format                                   : ASS
Codec ID                                 : S_TEXT/ASS
Codec ID/Info                            : Advanced Sub Station Alpha
Compression mode                         : Lossless
Title                                    : Styled subs (ASS)
Language                                 : English
Default                                  : No
Forced                                   : No

Text #2
ID                                       : 6
Format                                   : VobSub
Muxing mode                              : zlib
Codec ID                                 : S_VOBSUB
Codec ID/Info                            : The same subtitle format used on DVDs
Title                                    : Imagesubs (VOBSUB)
Language                                 : Japanese
Default                                  : No
Forced                                   : No

L'audio en català es de Xagasa.

Link a Torrent y a Nyaa.

Qui està connectat

Usuaris navegant en aquest fòrum: No hi ha cap usuari registrat i 5 visitants