Anime i manga en català

Moderadors: Guiru, Maki

 
Avatar de l’usuari
david80scat
Sushinchu
Sushinchu
Entrades: 434
Membre des de: dv. 05 abr. 2013, 15:14

Amazon Prime

dj. 04 oct. 2018, 17:31

Bones a tots,

Voldria saber com es descarreguen sèries i/o pel·lícules, si és que es pot, d'Amazon Prime, de la mateixa manera que es poden descarregar de 3 a la carta o de Netflix?

Moltes gràcies.
Creu amb les senyals!
 
Avatar de l’usuari
fabrebatalla18
Chishinchu
Chishinchu
Entrades: 3236
Membre des de: ds. 11 juny 2011, 17:30

Re: Amazon Prime

dj. 04 oct. 2018, 19:44

T'aviso de que si per a Netflix uses FlixGrab no estaras baixant un WEB-DL, en realitat reencodeja el video i audio, a mes que ho fa fatal, amb molta pixelacio.

Sobre la teva pregunta, per desgracia no existeixen formes de baixar de primevideo sense eines privades, i els qui les tenen no les comparteixen per desgracia...
 
Avatar de l’usuari
david80scat
Sushinchu
Sushinchu
Entrades: 434
Membre des de: dv. 05 abr. 2013, 15:14

Re: Amazon Prime

dj. 04 oct. 2018, 21:27

He averiguat alguna cosa més. Resulta que amb la app de Amazon Prime es poden descarregar per veure'ls aen offline. Quan es descarrega es veu com la memòria del mòvil s'enplena, però aquí m'he quedat. No tinc ni idea com descarrega i on els guarda.
Gràcies per la info.

EDITO:

Ja he aconseguit com es descarreguen, Només em faltava fer root i ja tenía accés a les dades de la app i allà es troba descarregat. És una porqueria, no només perquè està encriptat, a més amb un media info la qualitat deixa a desitjar. Volia descarregar la 1r temporada de Hora de aventura per els àudios i montar-los en bones raws, però ja veig que no valdrà la pena:
Uns exemples dels que he descarregat, segons la app, en la seva millor qualitat:

VÍDEO:
Spoiler: mostra
Video
ID : 1
Format : HEVC
Format/Info : High Efficiency Video Coding
Format profile : Main@L3@Main
Codec ID : encv / hev1
Codec ID/Info : High Efficiency Video Coding
Duration : 11 min 21 s
Bit rate : 536 kb/s
Maximum bit rate : 2 769 kb/s
Width : 720 pixels
Height : 480 pixels
Display aspect ratio : 16:9
Original display aspect rat : 16:9
Frame rate mode : Constant
Frame rate : 25.000 FPS
Standard : NTSC
Color space : YUV
Chroma subsampling : 4:2:0
Bit depth : 8 bits
Bits/(Pixel*Frame) : 0.062
Stream size : 43.6 MiB (99%)
Default : Yes
Alternate group : 1
Encryption : Encrypted
Color range : Limited
Color primaries : BT.709
Transfer characteristics : BT.709
Matrix coefficients : BT.709


AUDIO
Spoiler: mostra
Audio
ID : 1
Format : AAC
Format/Info : Advanced Audio Codec
Format profile : LC
Codec ID : enca-40-2
Duration : 11 min 21 s
Bit rate mode : Variable
Bit rate : 80.0 kb/s
Maximum bit rate : 84.9 kb/s
Channel(s) : 2 channels
Channel positions : Front: L R
Sampling rate : 24.0 kHz
Frame rate : 23.438 FPS (1024 SPF)
Compression mode : Lossy
Stream size : 6.40 MiB (96%)
Language : Spanish
Default : Yes
Alternate group : 1
Encryption : Encrypted
Creu amb les senyals!

Qui està connectat

Usuaris navegant en aquest fòrum: No hi ha cap usuari registrat i 1 visitant