Anime i manga en català

Moderadors: Steve Maister, wachimiro, Bilkoff

 
cloudsnake861
Arashinchu
Arashinchu
Entrades: 88
Membre des de: dt. 21 oct. 2014, 14:32

[Lolabits/Openload]Mazinger Z [DVDRip][68/92]Dual Cat-Jap+Sub

dv. 05 feb. 2016, 13:47

Imatge

TÍTOL ORIGINAL Majingâ Zetto - Mazinger Z (TV Series)
ANY 1972
DURADA 21min opening i ending separats
PAÍS
DIRECTOR Tomoharu Katsumata, Bonjin Nagaki, Nobuo Onuki, Jou Serikawa
GUIÓ Còmic: Go Nagai
MÚSICA Michiaki Watanabe
FOTOGRAFIA Animation
REPARTIMENT Animation
PRODUCTORA Toei Animation Company
GÈNERE Sèrie de TV. Animació. Acció. Fantàstic. Ciència ficció | Robots. Manga


Media info

Spoiler: mostra
Format : Matroska
Format version : Version 4 / Version 2
File size : 223 MiB
Duration : 21mn 26s
Overall bit rate : 1 452 Kbps
Encoded date : UTC 2014-10-11 15:47:54
Writing application : mkvmerge v7.1.0 ('Good Love') 64bit built on Jul 27 2014 13:06:55
Writing library : libebml v1.3.0 + libmatroska v1.4.1

Video
ID : 1
Format : AVC
Format/Info : Advanced Video Codec
Format profile : Main@L3
Format settings, CABAC : Yes
Format settings, ReFrames : 4 frames
Codec ID : V_MPEG4/ISO/AVC
Duration : 21mn 26s
Bit rate : 1 139 Kbps
Width : 720 pixels
Height : 576 pixels
Display aspect ratio : 4:3
Frame rate mode : Constant
Frame rate : 25.000 fps
Standard : PAL
Color space : YUV
Chroma subsampling : 4:2:0
Bit depth : 8 bits
Scan type : Progressive
Bits/(Pixel*Frame) : 0.110
Stream size : 175 MiB (78%)
Writing library : x264 core 120
Encoding settings : cabac=1 / ref=1 / deblock=1:0:0 / analyse=0x1:0x111 / me=hex / subme=2 / psy=1 / psy_rd=1.00:0.00 / mixed_ref=0 / me_range=16 / chroma_me=1 / trellis=0 / 8x8dct=0 / cqm=0 / deadzone=21,11 / fast_pskip=1 / chroma_qp_offset=0 / threads=6 / sliced_threads=0 / nr=0 / decimate=1 / interlaced=0 / bluray_compat=0 / constrained_intra=0 / bframes=3 / b_pyramid=2 / b_adapt=1 / b_bias=0 / direct=1 / weightb=1 / open_gop=0 / weightp=1 / keyint=250 / keyint_min=25 / scenecut=40 / intra_refresh=0 / rc_lookahead=10 / rc=crf / mbtree=1 / crf=20.0 / qcomp=0.60 / qpmin=3 / qpmax=69 / qpstep=4 / ip_ratio=1.40 / aq=1:1.00
Default : Yes
Forced : No
Color range : Limited
Color primaries : BT.601 NTSC
Transfer characteristics : BT.709
Matrix coefficients : BT.601

Audio #1
ID : 2
Format : AAC
Format/Info : Advanced Audio Codec
Format profile : LC
Codec ID : A_AAC
Duration : 21mn 25s
Bit rate : 156 Kbps
Channel(s) : 1 channel
Channel positions : Front: C
Sampling rate : 48.0 KHz
Frame rate : 46.875 fps (1024 spf)
Compression mode : Lossy
Stream size : 23.9 MiB (11%)
Language : Catalan
Default : Yes
Forced : No

Audio #2
ID : 3
Format : AAC
Format/Info : Advanced Audio Codec
Format profile : LC
Codec ID : A_AAC
Duration : 21mn 25s
Bit rate : 152 Kbps
Channel(s) : 1 channel
Channel positions : Front: C
Sampling rate : 48.0 KHz
Frame rate : 46.875 fps (1024 spf)
Compression mode : Lossy
Stream size : 23.2 MiB (10%)
Language : Japanese
Default : No
Forced : No

Text
ID : 4
Format : VobSub
Muxing mode : zlib
Codec ID : S_VOBSUB
Codec ID/Info : Picture based subtitle format used on DVDs
Duration : 21mn 14s
Bit rate : 3 114 bps
Count of elements : 471
Stream size : 484 KiB (0%)
Language : Spanish
Default : No
Forced : No




CONTRASEÑA:lolabitshd
enlace de descarga

31 de mazo lolabits cierra sus puertas en cuanto pase eso quitare el enlace y solo quedara openload :(




dejo tambien en programa de lolabits para descargar multiples archivos




Descarga Openload

capitulo 01
https://openload.co/f/QsSh8N1zaSA/
Capitulo 02
https://openload.co/f/UDvLmiV8uWk/
cloudsnake861 l’ha editat per darrera vegada el dia: dt. 08 març 2016, 15:44, en total s’ha editat 23 vegades.
 
cloudsnake861
Arashinchu
Arashinchu
Entrades: 88
Membre des de: dt. 21 oct. 2014, 14:32

Re: [Lolabits]Mazinger Z [40/92]Dual Cat-Jap+Sub

dv. 05 feb. 2016, 14:24

hola que tal hace mucho comenze esta gran serie pero por maternidad y trabajo tuve que dejarl.o de eso a a pasado casi 3 años a parte perdí varios dvd donde tenia la serie grabada, y al intentar bajarlo de nuevo ya no estaban disponible en la web por suerte un amigo los tenia y pude recuperar los. y hoy por fin vuelvo a la carga y espero no detener de nuevo la serie. ya estoy ripeando del 41 en adelante
 
cloudsnake861
Arashinchu
Arashinchu
Entrades: 88
Membre des de: dt. 21 oct. 2014, 14:32

Re: [Lolabits]Mazinger Z [DVDRip][57/92]Dual Cat-Jap+Sub

dl. 08 feb. 2016, 15:36

ya tienen hasta el 57 a ver si hoy o mañana me pongo a ripear mas un saludo
 
Goku
Usuari
Usuari
Entrades: 9
Membre des de: dt. 12 gen. 2016, 16:59

Re: [Lolabits]Mazinger Z [DVDRip][57/92]Dual Cat-Jap+Sub

dl. 08 feb. 2016, 19:07

Gracias por Mazinger Z, hace tiempo que quería ver este anime pero no lo encontraba con una calidad aceptable y en catalán.
 
cloudsnake861
Arashinchu
Arashinchu
Entrades: 88
Membre des de: dt. 21 oct. 2014, 14:32

Re: [Lolabits]Mazinger Z [DVDRip][61/92]Dual Cat-Jap+Sub

dc. 10 feb. 2016, 12:13

añadido los capitulos 58,59,60 y 61 disfrutarlos :)
 
Avatar de l’usuari
sergiocg
Usuari
Usuari
Entrades: 22
Membre des de: dg. 18 ago. 2013, 12:21

Re: [Lolabits]Mazinger Z [DVDRip][61/92]Dual Cat-Jap+Sub

dl. 15 feb. 2016, 21:42

Muchas gracias, descargando y esperando el resto!
 
Avatar de l’usuari
david80scat
Sanshinchu
Sanshinchu
Entrades: 244
Membre des de: dv. 05 abr. 2013, 15:14
Contacta:

Re: [Lolabits]Mazinger Z [DVDRip][61/92]Dual Cat-Jap+Sub

dc. 17 feb. 2016, 22:15

Moltes gracies pels capítols.
Tinc descarregats els DVD 1 i 2 i ara volia anar pel 3 però la cotrasenya posa que és incorrecte. :blink:
 
cloudsnake861
Arashinchu
Arashinchu
Entrades: 88
Membre des de: dt. 21 oct. 2014, 14:32

Re: [Lolabits]Mazinger Z [DVDRip][61/92]Dual Cat-Jap+Sub

dj. 18 feb. 2016, 17:16

david80scat ha escrit:
Moltes gracies pels capítols.
Tinc descarregats els DVD 1 i 2 i ara volia anar pel 3 però la cotrasenya posa que és incorrecte. :blink:


la contraseña es animelliure saludos a ver si funciona ara ^^
 
cloudsnake861
Arashinchu
Arashinchu
Entrades: 88
Membre des de: dt. 21 oct. 2014, 14:32

Re: [Lolabits]Mazinger Z [DVDRip][61/92]Dual Cat-Jap+Sub

dl. 22 feb. 2016, 22:40

la contraseña pasa a ser lolabitshd es la contraseña que uso para todos mis aportes en lolabits y bueno a ver si para la semana que viene me pongo a ripear del 62 en adelante un saludo
 
cloudsnake861
Arashinchu
Arashinchu
Entrades: 88
Membre des de: dt. 21 oct. 2014, 14:32

Re: [Lolabits]Mazinger Z [DVDRip][61/92]Dual Cat-Jap+Sub

dj. 25 feb. 2016, 01:10

añadido un pack de 7 capítulos del 62 hasta el 68 disfrutarlos
 
cloudsnake861
Arashinchu
Arashinchu
Entrades: 88
Membre des de: dt. 21 oct. 2014, 14:32

Re: [Lolabits/Openload]Mazinger Z [DVDRip][68/92]Dual Cat-Jap+Sub

dt. 08 març 2016, 00:53

como lolabits cierra sus puertas. del 69 en adelante los subiré a openload ya estoy volviendo a subir los capitulos a esa nueva plataforma, los capitulos estan en rar ya que openload si los subes sin meterlos en un rar te los convierte un saludo.
 
Avatar de l’usuari
Redyck
Ushinchu
Ushinchu
Entrades: 1189
Membre des de: dc. 07 set. 2005, 01:15

Re: [Lolabits/Openload]Mazinger Z [DVDRip][68/92]Dual Cat-Jap+Sub

dv. 22 abr. 2016, 21:45

Com va la pujada dels restants episodis??

Gracies i bona feina.
 
Avatar de l’usuari
pinya
Usuari
Usuari
Entrades: 13
Membre des de: ds. 21 gen. 2012, 23:43

Re: [Lolabits/Openload]Mazinger Z [DVDRip][68/92]Dual Cat-Jap+Sub

dc. 18 gen. 2017, 01:23

Ja no funciona cap dels links... :no:
Realment m'agradaria tornar a veure aquesta sèrie, només la vaig veure una vegada de nena i en tinc molt bons records.
 
 
Avatar de l’usuari
xagasa
Ryushinchu
Ryushinchu
Entrades: 2063
Membre des de: dl. 26 maig 2014, 10:16
Ubicació: Planeta M2

Re: [Lolabits/Openload]Mazinger Z [DVDRip][68/92]Dual Cat-Jap+Sub

dj. 12 oct. 2017, 15:55

Quans capitols faltaven per posar?

Qui està connectat

Usuaris navegant en aquest fòrum: No hi ha cap usuari registrat i 4 visitants