Anime i manga en català

Moderadors: Steve Maister, wachimiro, Bilkoff

 
Avatar de l’usuari
Bilkoff
Moderadors
Moderadors
Entrades: 782
Membre des de: dt. 05 oct. 2004, 19:22
Ubicació: Borriana
Contacta:

Ghost in the Shell 2: Innocence

dv. 25 març 2011, 19:42

Ghost in the Shell 2: Innocence
イノセンス, Innocence

Imatge


ANY: 2004
DURACIÓ: 99 min.
DIRECTOR: Mamoru Oshii
GUIO: Masamune Shirow (història original), Mamoru Oshii (animació)
MÚSICA: Kenji Kawai
PRODUCTORA: Production I.G - Studio Ghibli
SINOPSIS: "Batou investiga tres asesinatos recientemente sucedidos en un callejón a manos de una muñeca sexual. Al encontrase con la asesina, Batou verá que algo no concuerda, pues la muñeca ginoide intenta suicidarse pidiendo ayuda. Daisuke Aramaki ordenará a Batou y Togusa investigar este caso para conocer si puede tener relación alguna para ser llevado por la Sección 9. En otro asesinato ligado al caso Batou encontrará dentro de un libro la fotografía holográfica del rostro de una niña. Esto llevará a Batou a investigar casi por cuenta propia el caso hasta llegar a la fábrica en donde se crean a las ginoides, allí le sorprenderá su ángel de la guarda."

Contenidor: mkv.
Formats: x264, ac3 i srt.
Àudio: Castellà, català, japonès i comentaris en japonès.
Subtítols: Castellà, anglès, comentaris en castellà i comentaris en anglès.
Qualitat: Rip del blu-ray original.
Mida total: 4'37 Gb (1DVD) partida en 5 parts.

Report Mediainfo
General
Unique ID : 242960720204805658682186994175297673154 (0xB6C8885AC857E98A827F34A07E5757C2)
Complete name : F:\Ghost in the Shell 2 Innocence.mkv
Format : Matroska
File size : 4.37 GiB
Duration : 1h 39mn
Overall bit rate : 6 263 Kbps
Movie name : Ghost in the Shell 2: Innocence
Encoded date : UTC 2011-03-22 21:11:27
Writing application : mkvmerge v4.6.0 ('Still Crazy After All These Years') creado el Mar 10 2011 02:50:32
Writing library : libebml v1.2.0 + libmatroska v1.1.0

Video
ID : 1
Format : AVC
Format/Info : Advanced Video Codec
Format profile : High@L4.1
Format settings, CABAC : Yes
Format settings, ReFrames : 4 frames
Muxing mode : Header stripping
Codec ID : V_MPEG4/ISO/AVC
Duration : 1h 39mn
Bit rate : 4 088 Kbps
Width : 1 920 pixels
Height : 1 048 pixels
Display aspect ratio : 1.850
Frame rate : 23.976 fps
Color space : YUV
Chroma subsampling : 4:2:0
Bit depth : 8 bits
Scan type : Progressive
Bits/(Pixel*Frame) : 0.085
Stream size : 2.77 GiB (63%)
Writing library : x264 core 114 r1913 5fd3dce
Encoding settings : cabac=1 / ref=4 / deblock=1:1:1 / analyse=0x3:0x133 / me=umh / subme=10 / psy=1 / psy_rd=0.40:0.00 / mixed_ref=1 / me_range=24 / chroma_me=1 / trellis=2 / 8x8dct=1 / cqm=0 / deadzone=21,11 / fast_pskip=1 / chroma_qp_offset=-2 / threads=6 / sliced_threads=0 / nr=0 / decimate=1 / interlaced=0 / constrained_intra=0 / bframes=10 / b_pyramid=2 / b_adapt=2 / b_bias=0 / direct=3 / weightb=1 / open_gop=0 / weightp=2 / keyint=250 / keyint_min=23 / scenecut=40 / intra_refresh=0 / rc_lookahead=60 / rc=2pass / mbtree=1 / bitrate=4088 / ratetol=1.0 / qcomp=0.60 / qpmin=0 / qpmax=69 / qpstep=4 / cplxblur=20.0 / qblur=0.5 / ip_ratio=1.40 / aq=1:0.60

Audio #1
ID : 2
Format : AC-3
Format/Info : Audio Coding 3
Mode extension : CM (complete main)
Muxing mode : Header stripping
Codec ID : A_AC3
Duration : 1h 39mn
Bit rate mode : Constant
Bit rate : 640 Kbps
Channel(s) : 6 channels
Channel positions : Front: L C R, Side: L R, LFE
Sampling rate : 48.0 KHz
Bit depth : 16 bits
Compression mode : Lossy
Stream size : 457 MiB (10%)
Language : Japanese

Audio #2
ID : 3
Format : AC-3
Format/Info : Audio Coding 3
Mode extension : CM (complete main)
Muxing mode : Header stripping
Codec ID : A_AC3
Duration : 1h 39mn
Bit rate mode : Constant
Bit rate : 640 Kbps
Channel(s) : 6 channels
Channel positions : Front: L C R, Side: L R, LFE
Sampling rate : 48.0 KHz
Bit depth : 16 bits
Compression mode : Lossy
Stream size : 457 MiB (10%)
Language : Spanish

Audio #3
ID : 4
Format : AC-3
Format/Info : Audio Coding 3
Mode extension : CM (complete main)
Muxing mode : Header stripping
Codec ID : A_AC3
Duration : 1h 39mn
Bit rate mode : Constant
Bit rate : 640 Kbps
Channel(s) : 2 channels
Channel positions : Front: L R
Sampling rate : 48.0 KHz
Bit depth : 16 bits
Compression mode : Lossy
Stream size : 457 MiB (10%)
Language : Catalan

Audio #4
ID : 5
Format : AC-3
Format/Info : Audio Coding 3
Mode extension : CM (complete main)
Muxing mode : Header stripping
Codec ID : A_AC3
Duration : 1h 39mn
Bit rate mode : Constant
Bit rate : 256 Kbps
Channel(s) : 2 channels
Channel positions : Front: L R
Sampling rate : 48.0 KHz
Bit depth : 16 bits
Compression mode : Lossy
Stream size : 183 MiB (4%)
Title : comm
Language : Japanese

Text #1
ID : 6
Format : UTF-8
Codec ID : S_TEXT/UTF8
Codec ID/Info : UTF-8 Plain Text
Title : comm
Language : English

Text #2
ID : 7
Format : UTF-8
Codec ID : S_TEXT/UTF8
Codec ID/Info : UTF-8 Plain Text
Language : English

Text #3
ID : 8
Format : UTF-8
Codec ID : S_TEXT/UTF8
Codec ID/Info : UTF-8 Plain Text
Title : comm
Language : Spanish

Text #4
ID : 9
Format : UTF-8
Codec ID : S_TEXT/UTF8
Codec ID/Info : UTF-8 Plain Text
Language : Spanish

Menu
00:00:00.000 : en:00:00:00.000
00:09:04.669 : en:00:09:04.669
00:13:55.293 : en:00:13:55.293
00:21:01.719 : en:00:21:01.719
00:24:47.069 : en:00:24:47.069
00:32:32.993 : en:00:32:32.993
00:39:14.519 : en:00:39:14.519
00:43:29.398 : en:00:43:29.398
00:50:35.032 : en:00:50:35.032
00:57:06.214 : en:00:57:06.214
01:02:24.199 : en:01:02:24.199
01:08:59.427 : en:01:08:59.427
01:15:47.585 : en:01:15:47.585
01:21:12.659 : en:01:21:12.659
01:28:00.025 : en:01:28:00.025
01:34:44.053 : en:01:34:44.053


Yandex
Bilkoff l’ha editat per darrera vegada el dia: dt. 15 oct. 2013, 03:33, en total s’ha editat 4 vegades.
 
Avatar de l’usuari
xaiman
Ryushinchu
Ryushinchu
Entrades: 2440
Membre des de: dv. 15 set. 2006, 22:28
Ubicació: al planeta d'en kaito

Re: [MU-1F] Ghost in the Shell 2: Innocence

dv. 25 març 2011, 22:47

moltisimes grasies tio macaves de alegrar la nit a10 :yeah:
 
Avatar de l’usuari
sourfingers
Ishinchu
Ishinchu
Entrades: 35
Membre des de: dc. 25 maig 2011, 14:52

Re: [MU-1F] Ghost in the Shell 2: Innocence

dj. 02 juny 2011, 01:18

KULLUNUT! no l'he vist encara ! Ni sabia ke stigues. MOLTES GRACIES! :yeah:
DR.CALAMAR
 
impatiens
Usuari
Usuari
Entrades: 17
Membre des de: dv. 07 set. 2007, 17:41

Re: [MU-1F] Ghost in the Shell 2: Innocence

dg. 08 jul. 2012, 15:04

gràcies
 
macx
Usuari
Usuari
Entrades: 1
Membre des de: dl. 04 juny 2012, 22:11

Re: [MU-1F] Ghost in the Shell 2: Innocence

dl. 04 feb. 2013, 16:52

Hola Bilkoff, els enllaços de 1fichier estan desabilitats per desús, pots fer res per arreglarlo? Moltes Gracies.
 
Avatar de l’usuari
Bilkoff
Moderadors
Moderadors
Entrades: 782
Membre des de: dt. 05 oct. 2004, 19:22
Ubicació: Borriana
Contacta:

Re: Ghost in the Shell 2: Innocence

dt. 04 juny 2013, 00:13

Ale, ja està repujada:

Uploaded
1fichier
Putlocker
 
necseron
Ishinchu
Ishinchu
Entrades: 44
Membre des de: dv. 23 març 2012, 18:51

Re: Ghost in the Shell 2: Innocence

dc. 05 juny 2013, 01:31

Moltes gràcies
 
Avatar de l’usuari
McFlai 2.0
Ishinchu
Ishinchu
Entrades: 62
Membre des de: dg. 28 feb. 2016, 16:59

Re: Ghost in the Shell 2: Innocence

dt. 05 abr. 2016, 20:45

segueixen vius a yandex, moltíssimes gràcies!!!
 
Avatar de l’usuari
jordi.sansa
Sanshinchu
Sanshinchu
Entrades: 336
Membre des de: dv. 19 ago. 2011, 17:35

Re: Ghost in the Shell 2: Innocence

dv. 08 abr. 2016, 18:21

Gràcies!!
 
mco234
Arashinchu
Arashinchu
Entrades: 172
Membre des de: dl. 10 oct. 2011, 23:32

Re: Ghost in the Shell 2: Innocence

ds. 09 abr. 2016, 22:46

Gracies.

Salutacions.
 
Andreuenc
Usuari
Usuari
Entrades: 20
Membre des de: dl. 04 set. 2017, 22:23

Re: Ghost in the Shell 2: Innocence

dc. 13 set. 2017, 23:01

Moltes gracies!!

Qui està connectat

Usuaris navegant en aquest fòrum: No hi ha cap usuari registrat i 4 visitants