Anime i manga en català

Moderadors: Maki, wachimiro

 
Avatar de l’usuari
david80scat
Sanshinchu
Sanshinchu
Entrades: 353
Membre des de: dv. 05 abr. 2013, 15:14

[G.DRIVE] Kung Fu Panda Llegendes Increïbles [29/80][1080p][Dual + Sub.Complets CAT-ANG]

dt. 30 oct. 2018, 20:35

Imatge

Sipnosi:La sèrie explica les aventures del Mestre Po, com s'entrena, protegeix, lluita, ensenya, aprèn, ensopega, parla massa, i també com duu a terme la seva nova vida d'heroi a la Vall de la Pau. Ara en la caserna amb els Cinc Furiosos, Po haurà d'afrontar moltes noves responsabilitats, els seus molts nous i vells adversaris, moltes lliures a l'educació contínua i les aventures del Guerrer del Drac també. En Po ha de lluitar contra diferents vilans per mostrar-li al món les seves destreses i salvar-los del mal i així mantenir en alt que ell és el millor "Guerrer del Drac".(Font: Wikipèdia)
Any: 2011
Temporades: 3
Capítols: 80
Vídeo: Web_DL 1080p x265
Áudio: Català MP2 160 kbps (2.0) / Anglès E-AC3 684 kbps (5.1)*
*2.0 a partir de la segona temporada.
Subtítols Complets: Català SRT / Anglès SRT
Extensió: mkv
MediaInfo:
Spoiler: mostra
Video
ID : 1
Format : HEVC
Format/Info : High Efficiency Video Coding
Format profile : Main 10@L4@Main
Codec ID : V_MPEGH/ISO/HEVC
Duration : 24 min 0 s
Bit rate : 1 350 kb/s
Width : 1 920 pixels
Height : 1 080 pixels
Display aspect ratio : 16:9
Frame rate mode : Constant
Frame rate : 23.976 (24000/1001) FPS
Color space : YUV
Chroma subsampling : 4:2:0
Bit depth : 10 bits
Bits/(Pixel*Frame) : 0.027
Stream size : 232 MiB (63%)
Writing library : x265 2.6+32-b763c22920f6:[Windows][MSVC 1900][64 bit] 10bit
Encoding settings : cpuid=1173503 / frame-threads=3 / numa-pools=8 / wpp / no-pmode / no-pme / no-psnr / no-ssim / log-level=2 / input-csp=1 / input-res=1920x1080 / interlace=0 / total-frames=34540 / level-idc=0 / high-tier=1 / uhd-bd=0 / ref=4 / no-allow-non-conformance / no-repeat-headers / annexb / no-aud / no-hrd / info / hash=0 / no-temporal-layers / open-gop / min-keyint=23 / keyint=250 / gop-lookahead=0 / bframes=4 / b-adapt=2 / b-pyramid / bframe-bias=0 / rc-lookahead=80 / lookahead-slices=4 / scenecut=40 / radl=0 / no-intra-refresh / ctu=64 / min-cu-size=8 / rect / no-amp / max-tu-size=32 / tu-inter-depth=1 / tu-intra-depth=1 / limit-tu=0 / rdoq-level=1 / dynamic-rd=0.00 / no-ssim-rd / signhide / no-tskip / nr-intra=0 / nr-inter=0 / no-constrained-intra / no-strong-intra-smoothing / max-merge=3 / limit-refs=3 / limit-modes / me=3 / subme=3 / merange=57 / temporal-mvp / weightp / no-weightb / no-analyze-src-pics / deblock=-1:-1 / no-sao / no-sao-non-deblock / rd=4 / no-early-skip / rskip / no-fast-intra / no-tskip-fast / no-cu-lossless / no-b-intra / no-splitrd-skip / rdpenalty=0 / psy-rd=0.50 / psy-rdoq=1.00 / no-rd-refine / no-lossless / cbqpoffs=0 / crqpoffs=0 / rc=abr / bitrate=1350 / qcomp=0.60 / qpstep=4 / stats-write=0 / stats-read=2 / cplxblur=20.0 / qblur=0.5 / ipratio=1.40 / pbratio=1.30 / aq-mode=2 / aq-strength=0.55 / cutree / zone-count=0 / no-strict-cbr / qg-size=32 / no-rc-grain / qpmax=69 / qpmin=0 / no-const-vbv / sar=0 / overscan=0 / videoformat=5 / range=0 / colorprim=2 / transfer=2 / colormatrix=2 / chromaloc=0 / display-window=0 / max-cll=0,0 / min-luma=0 / max-luma=1023 / log2-max-poc-lsb=8 / vui-timing-info / vui-hrd-info / slices=1 / no-opt-qp-pps / no-opt-ref-list-length-pps / no-multi-pass-opt-rps / scenecut-bias=0.05 / no-opt-cu-delta-qp / no-aq-motion / no-hdr / no-hdr-opt / no-dhdr10-opt / analysis-reuse-level=5 / scale-factor=0 / refine-intra=0 / refine-inter=0 / refine-mv=0 / no-limit-sao / ctu-info=0 / no-lowpass-dct / refine-mv-type=0 / copy-pic=1
Default : Yes
Forced : No

Audio #1
ID : 2
Format : MPEG Audio
Format version : Version 1
Format profile : Layer 2
Codec ID : A_MPEG/L2
Codec ID/Hint : MP2
Duration : 24 min 0 s
Bit rate mode : Constant
Bit rate : 160 kb/s
Channel(s) : 2 channels
Sampling rate : 48.0 kHz
Frame rate : 41.667 FPS (1152 SPF)
Compression mode : Lossy
Stream size : 27.5 MiB (7%)
Title : El mestre Ping (2.0)
Language : Catalan
Default : Yes
Forced : No

Audio #2
ID : 3
Format : E-AC-3
Format/Info : Enhanced Audio Coding 3
Codec ID : A_EAC3
Duration : 24 min 0 s
Bit rate mode : Constant
Bit rate : 640 kb/s
Channel(s) : 6 channels
Channel positions : Front: L C R, Side: L R, LFE
Sampling rate : 48.0 kHz
Frame rate : 187.500 FPS (256 SPF)
Compression mode : Lossy
Stream size : 110 MiB (30%)
Title : Master Ping (5.1)
Language : English
Service kind : Complete Main
Default : No
Forced : No

Text #1
ID : 4
Format : UTF-8
Codec ID : S_TEXT/UTF8
Codec ID/Info : UTF-8 Plain Text
Duration : 23 min 3 s
Bit rate : 66 b/s
Count of elements : 344
Stream size : 11.2 KiB (0%)
Title : El mestre Ping (Subtitols Complets)
Language : Catalan
Default : Yes
Forced : No

Text #2
ID : 5
Format : UTF-8
Codec ID : S_TEXT/UTF8
Codec ID/Info : UTF-8 Plain Text
Duration : 23 min 4 s
Bit rate : 69 b/s
Count of elements : 479
Stream size : 11.7 KiB (0%)
Title : Master Ping (Complet Subtitles)
Language : English
Default : No
Forced : No



TEMPORADA 1 (26/26):
https://drive.google.com/open?id=14fySpe0HObpzQjgMnwyba-gEXKmj4qra
TEMPORADA 2 (03/26):
https://drive.google.com/open?id=1MvWINOxQ-qo2tvUWMxEPCoovnEL_JoSW
TEMPORADA 3 (00/28):
david80scat l’ha editat per darrera vegada el dia: ds. 10 nov. 2018, 00:14, en total s’ha editat 7 vegades.
Creu amb les senyals!
 
Avatar de l’usuari
xagasa
Chishinchu
Chishinchu
Entrades: 3039
Membre des de: dl. 26 maig 2014, 10:16
Ubicació: Planeta M2

Re: [MEGA] Kung Fu Panda Llegendes Increïbles [1080p][Dual + Sub.Complets CAT-ANG]

dc. 31 oct. 2018, 00:53

Bona aportació david80scat.
Moltes gràcies. :yeah:
 
Avatar de l’usuari
david80scat
Sanshinchu
Sanshinchu
Entrades: 353
Membre des de: dv. 05 abr. 2013, 15:14

Re: [MEGA] Kung Fu Panda Llegendes Increïbles [1080p][Dual + Sub.Complets CAT-ANG]

dc. 31 oct. 2018, 19:45

Moltes gràcies.
Vaig fer el primer capítol, i llavors vaig un temps em plan: pfff això portarà feina. Però aquestes últimes dues setmanes estic portant un bon ritme, i m'he animat jeje.

Pujats 13 i 14.
Creu amb les senyals!
 
Avatar de l’usuari
david80scat
Sanshinchu
Sanshinchu
Entrades: 353
Membre des de: dv. 05 abr. 2013, 15:14

Re: [MEGA] Kung Fu Panda Llegendes Increïbles [1080p][Dual + Sub.Complets CAT-ANG]

dj. 01 nov. 2018, 20:50

15, 16 i 17 pujats.
Creu amb les senyals!
 
Avatar de l’usuari
david80scat
Sanshinchu
Sanshinchu
Entrades: 353
Membre des de: dv. 05 abr. 2013, 15:14

Re: [MEGA] Kung Fu Panda Llegendes Increïbles [1080p][Dual + Sub.Complets CAT-ANG]

ds. 03 nov. 2018, 13:25

18, 19 i 20 pujats.
Creu amb les senyals!
 
Avatar de l’usuari
david80scat
Sanshinchu
Sanshinchu
Entrades: 353
Membre des de: dv. 05 abr. 2013, 15:14

Re: [MEGA] Kung Fu Panda Llegendes Increïbles [20/80][1080p][Dual + Sub.Complets CAT-ANG]

dj. 08 nov. 2018, 20:04

Canvi de servidor i primera temporada completa.

Salutacions.
Creu amb les senyals!
 
Avatar de l’usuari
david80scat
Sanshinchu
Sanshinchu
Entrades: 353
Membre des de: dv. 05 abr. 2013, 15:14

Re: [G.DRIVE] Kung Fu Panda Llegendes Increïbles [29/80][1080p][Dual + Sub.Complets CAT-ANG]

ds. 10 nov. 2018, 00:14

Comencem segona temporada.

1, 2 i 3 pujats. A partir d'aquesta temporada l'áudio en anglès és 2.0.
Creu amb les senyals!

Qui està connectat

Usuaris navegant en aquest fòrum: No hi ha cap usuari registrat i 1 visitant